ZZ Top – ZZ Top’s First Album




No Cover available

Artist: ZZ Top
Year: 1970/1988
Genre: Rock
Notes: Discogs
Add. Notes:
Watch Songs on: YouTube
Cover incl.: Yes
Encoder: FLAC
Bitrate: ~800 kBit/s (44.1 kHz/16 Bit/s)
Log & Cue incl.: Yes/Yes
Size: 211,4 MB
Password: “slam” (without ” “)


All Downloads/Hosters are compatible

Download 1
KatFile.com
Turbobit.net
Rapidgator.net
FileFactory.com
Download 2
KatFile.com
Turbobit.net
Rapidgator.net
FileFactory.com

Tracklist:

1 (Somebody Else Been) Shaking Your Tree 
2 Brown Sugar 
3 Squank 
4 Goin Down To Mexico 
5 Old Man 
6 Neighbor, Neighbor 
7 Certified Blues 
8 Bedroom Thang 
9 Just Got Back From Baby's 
10 Backdoor Love Affair

EAC-Log, CUE-Sheed & NFO:

Click to open spoiler
Exact Audio Copy V1.0 beta 1 from 15. November 2010

EAC extraction logfile from 3. April 2011, 18:02

ZZ Top / ZZ Top’s First Album

Used drive : Optiarc DVD-ROM DDU1675S Adapter: 4 ID: 0

Read mode : Secure
Utilize accurate stream : Yes
Defeat audio cache : Yes
Make use of C2 pointers : No

Read offset correction : 6
Overread into Lead-In and Lead-Out : No
Fill up missing offset samples with silence : Yes
Delete leading and trailing silent blocks : No
Null samples used in CRC calculations : Yes
Used interface : Installed external ASPI interface

Used output format : User Defined Encoder
Selected bitrate : 1024 kBit/s
Quality : High
Add ID3 tag : No
Command line compressor : D:\Rec Install\lossless\lossless\Exact Audio Copy 0.9b4 + APE WV & FLAC Encoders\FLAC.EXE
Additional command line options : -8 -V %s

TOC of the extracted CD

Track | Start | Length | Start sector | End sector
———————————————————
1 | 0:00.32 | 2:29.23 | 32 | 11229
2 | 2:29.55 | 5:22.45 | 11230 | 35424
3 | 7:52.25 | 2:49.20 | 35425 | 48119
4 | 10:41.45 | 3:23.12 | 48120 | 63356
5 | 14:04.57 | 3:32.23 | 63357 | 79279
6 | 17:37.05 | 2:19.50 | 79280 | 89754
7 | 19:56.55 | 3:28.00 | 89755 | 105354
8 | 23:24.55 | 3:53.22 | 105355 | 122851
9 | 27:18.02 | 4:14.48 | 122852 | 141949
10 | 31:32.50 | 2:42.02 | 141950 | 154101

Range status and errors

Selected range

Filename G:\# MY\ZZ Top – Discography (1970-2008)\1970 – ZZ Top’s First Album\ZZ Top – ZZ Top’s First Album.wav

Peak level 100.0 %
Extraction speed 0.4 X
Range quality 100.0 %
Test CRC 6DA47702
Copy CRC 6DA47702
Copy OK

No errors occurred

AccurateRip summary

Track 1 accurately ripped (confidence 15) [92A8169E]
Track 2 accurately ripped (confidence 15) [0ABCC1CB]
Track 3 accurately ripped (confidence 15) [13789DF1]
Track 4 accurately ripped (confidence 15) [80F7783E]
Track 5 accurately ripped (confidence 15) [9A89BFFC]
Track 6 accurately ripped (confidence 15) [104B7D53]
Track 7 accurately ripped (confidence 15) [DC6A584C]
Track 8 accurately ripped (confidence 13) [67A88D5E]
Track 9 accurately ripped (confidence 15) [2D6BFAD3]
Track 10 accurately ripped (confidence 15) [E4AF96C1]

All tracks accurately ripped

End of status report

REM GENRE Rock
REM DATE 1970
REM DISCID 8508060A
REM COMMENT “ExactAudioCopy v1.0b1”
PERFORMER “ZZ Top”
TITLE “ZZ Top’s First Album”
FILE “ZZ Top – ZZ Top’s First Album.flac” WAVE
TRACK 01 AUDIO
TITLE “(Somebody Else Been) Shaking Your Tree”
PERFORMER “ZZ Top”
INDEX 00 00:00:00
INDEX 01 00:00:32
TRACK 02 AUDIO
TITLE “Brown Sugar”
PERFORMER “ZZ Top”
INDEX 00 02:28:00
INDEX 01 02:29:55
TRACK 03 AUDIO
TITLE “Squank”
PERFORMER “ZZ Top”
INDEX 00 07:51:10
INDEX 01 07:52:25
TRACK 04 AUDIO
TITLE “Goin’ Down To Mexico”
PERFORMER “ZZ Top”
INDEX 00 10:38:32
INDEX 01 10:41:45
TRACK 05 AUDIO
TITLE “Old Man”
PERFORMER “ZZ Top”
INDEX 00 14:03:12
INDEX 01 14:04:57
TRACK 06 AUDIO
TITLE “Neighbor, Neighbor”
PERFORMER “ZZ Top”
INDEX 00 17:35:27
INDEX 01 17:37:05
TRACK 07 AUDIO
TITLE “Certified Blues”
PERFORMER “ZZ Top”
INDEX 00 19:55:47
INDEX 01 19:56:55
TRACK 08 AUDIO
TITLE “Bedroom Thang”
PERFORMER “ZZ Top”
INDEX 00 23:22:72
INDEX 01 23:24:55
TRACK 09 AUDIO
TITLE “Just Got Back From Baby’s”
PERFORMER “ZZ Top”
INDEX 00 27:17:25
INDEX 01 27:18:02
TRACK 10 AUDIO
TITLE “Backdoor Love Affair”
PERFORMER “ZZ Top”
INDEX 00 31:29:70
INDEX 01 31:32:50


Leave a Reply

Your email address will not be published. Required fields are marked *

This site uses Akismet to reduce spam. Learn how your comment data is processed.