ZZ Top – XXX




No Cover available


Artist: ZZ Top
Year: 1999
Genre: Rock
Notes: Discogs
Add. Notes:
Watch Songs on: YouTube
Cover incl.: Yes
Encoder: FLAC
Bitrate: ~1000 kBit/s (44.1 kHz/16 Bit/s)
Log & Cue incl.: Yes/Yes
Size: 361,4 MB
Password: “slam” (without ” “)


All Downloads/Hosters are compatible

Download 1
KatFile.com
Turbobit.net
Rapidgator.net
FileFactory.com
Download 2
KatFile.com
Turbobit.net
Rapidgator.net
FileFactory.com

Tracklist:

1 Poke Chop Sandwich 4:50
2 Crucifixxx-A-Flatt 3:58
3 Fearless Boogie 3:59
4 36-22-36 2:35
5 Made Into A Movie 5:13
6 Beatbox 2:48
7 Trippin' 3:55
8 Dreadmonboogaloo 2:36
9 Live Introduction By Ross Mitchell 0:35
10 Sinpusher 5:11
11 (Let Me Be Your) Teddy Bear 5:13
12 Hey Mr. Millionaire 4:08
13 Belt Buckle 4:05

EAC-Log, CUE-Sheed & NFO:

Click to open spoiler
Exact Audio Copy V1.0 beta 1 from 15. November 2010

EAC extraction logfile from 4. April 2011, 0:32

ZZ Top / XXX

Used drive : Optiarc DVD-ROM DDU1675S Adapter: 4 ID: 0

Read mode : Secure
Utilize accurate stream : Yes
Defeat audio cache : Yes
Make use of C2 pointers : No

Read offset correction : 6
Overread into Lead-In and Lead-Out : No
Fill up missing offset samples with silence : Yes
Delete leading and trailing silent blocks : No
Null samples used in CRC calculations : Yes
Used interface : Installed external ASPI interface

Used output format : User Defined Encoder
Selected bitrate : 1024 kBit/s
Quality : High
Add ID3 tag : No
Command line compressor : D:\Rec Install\lossless\lossless\Exact Audio Copy 0.9b4 + APE WV & FLAC Encoders\FLAC.EXE
Additional command line options : -8 -V %s

TOC of the extracted CD

Track | Start | Length | Start sector | End sector
———————————————————
1 | 0:00.00 | 4:50.40 | 0 | 21789
2 | 4:50.40 | 3:59.07 | 21790 | 39721
3 | 8:49.47 | 4:01.40 | 39722 | 57836
4 | 12:51.12 | 2:35.23 | 57837 | 69484
5 | 15:26.35 | 5:13.65 | 69485 | 93024
6 | 20:40.25 | 2:48.27 | 93025 | 105651
7 | 23:28.52 | 3:55.18 | 105652 | 123294
8 | 27:23.70 | 2:36.00 | 123295 | 134994
9 | 29:59.70 | 0:34.70 | 134995 | 137614
10 | 30:34.65 | 5:18.45 | 137615 | 161509
11 | 35:53.35 | 5:21.02 | 161510 | 185586
12 | 41:14.37 | 4:14.43 | 185587 | 204679
13 | 45:29.05 | 4:05.27 | 204680 | 223081

Range status and errors

Selected range

Filename G:\# MY\ZZ Top – Discography (1970-2008)\1999 – XXX\ZZ Top – XXX.wav

Peak level 99.9 %
Extraction speed 0.4 X
Range quality 100.0 %
Test CRC 453843DE
Copy CRC 453843DE
Copy OK

No errors occurred

AccurateRip summary

Track 1 accurately ripped (confidence 2) [88D53699]
Track 2 accurately ripped (confidence 2) [C62F3FA1]
Track 3 accurately ripped (confidence 2) [E9B66941]
Track 4 accurately ripped (confidence 2) [3BEC5346]
Track 5 accurately ripped (confidence 2) [200E7230]
Track 6 accurately ripped (confidence 2) [78732956]
Track 7 accurately ripped (confidence 2) [AC008A4A]
Track 8 accurately ripped (confidence 2) [F0CF16B4]
Track 9 accurately ripped (confidence 2) [FD2682EE]
Track 10 accurately ripped (confidence 2) [A2BD4857]
Track 11 accurately ripped (confidence 2) [D6F14631]
Track 12 accurately ripped (confidence 2) [93ED70B9]
Track 13 accurately ripped (confidence 2) [28DE2E59]

All tracks accurately ripped

End of status report

REM GENRE Rock
REM DATE 1999
REM DISCID A40B9E0D
REM COMMENT “ExactAudioCopy v1.0b1”
PERFORMER “ZZ Top”
TITLE “XXX”
FILE “ZZ Top – XXX.flac” WAVE
TRACK 01 AUDIO
TITLE “Poke Chop Sandwich”
PERFORMER “ZZ Top”
INDEX 01 00:00:00
TRACK 02 AUDIO
TITLE “Crucifixx-A-Flatt”
PERFORMER “ZZ Top”
INDEX 01 04:50:40
TRACK 03 AUDIO
TITLE “Fearless Boogie”
PERFORMER “ZZ Top”
INDEX 00 08:48:70
INDEX 01 08:49:47
TRACK 04 AUDIO
TITLE “36-22-36”
PERFORMER “ZZ Top”
INDEX 00 12:51:02
INDEX 01 12:51:12
TRACK 05 AUDIO
TITLE “Made Into A Movie”
PERFORMER “ZZ Top”
INDEX 01 15:26:35
TRACK 06 AUDIO
TITLE “Beatbox”
PERFORMER “ZZ Top”
INDEX 00 20:40:17
INDEX 01 20:40:25
TRACK 07 AUDIO
TITLE “Trippin'”
PERFORMER “ZZ Top”
INDEX 01 23:28:52
TRACK 08 AUDIO
TITLE “Dreadmonboogaloo”
PERFORMER “ZZ Top”
INDEX 01 27:23:70
TRACK 09 AUDIO
TITLE “Live Intro By Ross Mitchell”
PERFORMER “ZZ Top”
INDEX 01 29:59:70
TRACK 10 AUDIO
TITLE “Sinpusher”
PERFORMER “ZZ Top”
INDEX 01 30:34:65
TRACK 11 AUDIO
TITLE “(Let Me Be Your) Teddy Bear”
PERFORMER “ZZ Top”
INDEX 00 35:46:50
INDEX 01 35:53:35
TRACK 12 AUDIO
TITLE “Hey Mr. Millionaire”
PERFORMER “ZZ Top”
INDEX 00 41:07:10
INDEX 01 41:14:37
TRACK 13 AUDIO
TITLE “Belt Buckle”
PERFORMER “ZZ Top”
INDEX 00 45:23:17
INDEX 01 45:29:05


0

Publication author

offline 7 days

Chaos

3
Comments: 4Publics: 3565Registration: 02-02-2019
Spread the Download

Leave a Reply

Your email address will not be published. Required fields are marked *

Enter the text from the image below
 

This site uses Akismet to reduce spam. Learn how your comment data is processed.