ZZ Top – Rio Grande Mud




No Cover available

Artist: ZZ Top
Year: 1972/1986
Genre: Rock
Notes: Discogs
Add. Notes:
Watch Songs on: YouTube
Cover incl.: Yes
Encoder: FLAC
Bitrate: ~900 kBit/s (44.1 kHz/16 Bit/s)
Log & Cue incl.: Yes/Yes
Size: 241,14 MB
Password: “slam” (without ” “)


All Downloads/Hosters are compatible

Download 1
KatFile.com
Turbobit.net
Rapidgator.net
FileFactory.com
Download 2
KatFile.com
Turbobit.net
Rapidgator.net
FileFactory.com

Tracklist:

1 Francine 3:33
2 Just Got Paid 4:49
3 Mushmouth Shoutin' 3:41
4 Ko Ko Blue 4:56
5 Chevrolet 3:47
6 Apologies To Pearly 2:39
7 Bar-B-Q 3:34
8 Sure Got Cold After The Rain Fell 7:39
9 Whiskey'n Mama 3:20
10 Down Brownie 2:53

EAC-Log, CUE-Sheed & NFO:

Click to open spoiler
Exact Audio Copy V1.0 beta 1 from 15. November 2010

EAC extraction logfile from 3. April 2011, 18:34

ZZ Top / Rio Grande Mud

Used drive : Optiarc DVD-ROM DDU1675S Adapter: 4 ID: 0

Read mode : Secure
Utilize accurate stream : Yes
Defeat audio cache : Yes
Make use of C2 pointers : No

Read offset correction : 6
Overread into Lead-In and Lead-Out : No
Fill up missing offset samples with silence : Yes
Delete leading and trailing silent blocks : No
Null samples used in CRC calculations : Yes
Used interface : Installed external ASPI interface

Used output format : User Defined Encoder
Selected bitrate : 1024 kBit/s
Quality : High
Add ID3 tag : No
Command line compressor : D:\Rec Install\lossless\lossless\Exact Audio Copy 0.9b4 + APE WV & FLAC Encoders\FLAC.EXE
Additional command line options : -8 -V %s

TOC of the extracted CD

Track | Start | Length | Start sector | End sector
———————————————————
1 | 0:00.32 | 2:53.63 | 32 | 13069
2 | 2:54.20 | 3:48.65 | 13070 | 30234
3 | 6:43.10 | 3:45.00 | 30235 | 47109
4 | 10:28.10 | 4:23.35 | 47110 | 66869
5 | 14:51.45 | 3:19.40 | 66870 | 81834
6 | 18:11.10 | 2:47.07 | 81835 | 94366
7 | 20:58.17 | 3:22.53 | 94367 | 109569
8 | 24:20.70 | 6:49.20 | 109570 | 140264
9 | 31:10.15 | 3:20.72 | 140265 | 155336
10 | 34:31.12 | 2:26.10 | 155337 | 166296

Range status and errors

Selected range

Filename G:\# MY\ZZ Top – Discography (1970-2008)\1972 – Rio Grande Mud\ZZ Top – Rio Grande Mud.wav

Peak level 100.0 %
Extraction speed 0.2 X
Range quality 100.0 %
Test CRC B29D5340
Copy CRC B29D5340
Copy OK

No errors occurred

AccurateRip summary

Track 1 cannot be verified as accurate (confidence 20) [18A02011], AccurateRip returned [8CBBFB11]
Track 2 cannot be verified as accurate (confidence 20) [8355B0D7], AccurateRip returned [DCB1A96A]
Track 3 cannot be verified as accurate (confidence 20) [02E82D38], AccurateRip returned [1BCB1753]
Track 4 cannot be verified as accurate (confidence 21) [7ED510D3], AccurateRip returned [221C69B7]
Track 5 cannot be verified as accurate (confidence 19) [771BD273], AccurateRip returned [A7316527]
Track 6 cannot be verified as accurate (confidence 21) [76FC5E0E], AccurateRip returned [CCB5B8E1]
Track 7 cannot be verified as accurate (confidence 21) [86D42A1E], AccurateRip returned [87BD6F36]
Track 8 cannot be verified as accurate (confidence 20) [670D67AA], AccurateRip returned [4ED27A9C]
Track 9 cannot be verified as accurate (confidence 20) [8DA3A6D2], AccurateRip returned [2B3BBC19]
Track 10 cannot be verified as accurate (confidence 20) [D5754DBF], AccurateRip returned [BA04ACA6]

No tracks could be verified as accurate
You may have a different pressing from the one(s) in the database

End of status report

REM GENRE Rock
REM DATE 1972
REM DISCID 7708A90A
REM COMMENT “ExactAudioCopy v1.0b1”
PERFORMER “ZZ Top”
TITLE “Rio Grande Mud”
FILE “ZZ Top – Rio Grande Mud.flac” WAVE
TRACK 01 AUDIO
TITLE “Francine”
PERFORMER “ZZ Top”
INDEX 00 00:00:00
INDEX 01 00:00:32
TRACK 02 AUDIO
TITLE “Just Got Paid”
PERFORMER “ZZ Top”
INDEX 01 02:54:20
TRACK 03 AUDIO
TITLE “Mushmouth Shoutin'”
PERFORMER “ZZ Top”
INDEX 00 06:41:67
INDEX 01 06:43:10
TRACK 04 AUDIO
TITLE “Ko Ko Blue”
PERFORMER “ZZ Top”
INDEX 00 10:27:05
INDEX 01 10:28:10
TRACK 05 AUDIO
TITLE “Chevrolet”
PERFORMER “ZZ Top”
INDEX 00 14:49:35
INDEX 01 14:51:45
TRACK 06 AUDIO
TITLE “Apologies To Pearly”
PERFORMER “ZZ Top”
INDEX 00 18:09:47
INDEX 01 18:11:10
TRACK 07 AUDIO
TITLE “Bar-B-Q”
PERFORMER “ZZ Top”
INDEX 00 20:55:32
INDEX 01 20:58:17
TRACK 08 AUDIO
TITLE “Sure Got Cold After The Rain Fell”
PERFORMER “ZZ Top”
INDEX 00 24:20:10
INDEX 01 24:20:70
TRACK 09 AUDIO
TITLE “Whiskey’n Mama”
PERFORMER “ZZ Top”
INDEX 00 31:08:50
INDEX 01 31:10:15
TRACK 10 AUDIO
TITLE “Down Brownie”
PERFORMER “ZZ Top”
INDEX 01 34:31:12


Leave a Reply

Your email address will not be published. Required fields are marked *

Enter the text from the image below
 

This site uses Akismet to reduce spam. Learn how your comment data is processed.