ZZ Top – Rhythmeen




Artist: ZZ Top
Year: 1996
Genre: Rock
Notes: Discogs
Add. Notes:
Encoder: FLAC
Bitrate: ~1000 kBit/s (VBR)
Size: 425 MB
Password: “slam” (without ” “)


Tracklist:

1 Rhythmeen 3:53
2 Bang Bang 4:28
3 Black Fly 3:31
4 What's Up With That 5:19
5 Vincent Price Blues 6:04
6 Zipper Job 4:14
7 Hairdresser 3:48
8 She's Just Killing Me 4:55
9 My Mind Is Gone 4:06
10 Loaded 3:47
11 Prettyhead 4:37
12 Hummbucking Part 2 5:13

Click to open spoiler
Exact Audio Copy V1.0 beta 1 from 15. November 2010

EAC extraction logfile from 4. April 2011, 0:07

ZZ Top / Rhythmeen

Used drive : Optiarc DVD-ROM DDU1675S Adapter: 4 ID: 0

Read mode : Secure
Utilize accurate stream : Yes
Defeat audio cache : Yes
Make use of C2 pointers : No

Read offset correction : 6
Overread into Lead-In and Lead-Out : No
Fill up missing offset samples with silence : Yes
Delete leading and trailing silent blocks : No
Null samples used in CRC calculations : Yes
Used interface : Installed external ASPI interface

Used output format : User Defined Encoder
Selected bitrate : 1024 kBit/s
Quality : High
Add ID3 tag : No
Command line compressor : D:\Rec Install\lossless\lossless\Exact Audio Copy 0.9b4 + APE WV & FLAC Encoders\FLAC.EXE
Additional command line options : -8 -V %s

TOC of the extracted CD

Track | Start | Length | Start sector | End sector
———————————————————
1 | 0:00.00 | 3:53.30 | 0 | 17504
2 | 3:53.30 | 4:28.42 | 17505 | 37646
3 | 8:21.72 | 3:33.13 | 37647 | 53634
4 | 11:55.10 | 5:20.30 | 53635 | 77664
5 | 17:15.40 | 6:04.00 | 77665 | 104964
6 | 23:19.40 | 4:14.57 | 104965 | 124071
7 | 27:34.22 | 3:49.38 | 124072 | 141284
8 | 31:23.60 | 4:57.37 | 141285 | 163596
9 | 36:21.22 | 4:06.35 | 163597 | 182081
10 | 40:27.57 | 3:48.03 | 182082 | 199184
11 | 44:15.60 | 4:40.10 | 199185 | 220194
12 | 48:55.70 | 5:12.60 | 220195 | 243654

Range status and errors

Selected range

Filename G:\# MY\ZZ Top – Discography (1970-2008)\1996 – Rhythmeen\ZZ Top – Rhythmeen.wav

Peak level 100.0 %
Extraction speed 0.4 X
Range quality 100.0 %
Test CRC 181FB545
Copy CRC 181FB545
Copy OK

No errors occurred

AccurateRip summary

Track 1 accurately ripped (confidence 2) [05EB596F]
Track 2 accurately ripped (confidence 2) [25DC0B91]
Track 3 accurately ripped (confidence 2) [CEEAA834]
Track 4 accurately ripped (confidence 2) [83AD994B]
Track 5 accurately ripped (confidence 2) [D65D28ED]
Track 6 accurately ripped (confidence 2) [A1AE78EA]
Track 7 accurately ripped (confidence 2) [F840C429]
Track 8 accurately ripped (confidence 2) [1B8E6A17]
Track 9 accurately ripped (confidence 2) [06117673]
Track 10 accurately ripped (confidence 2) [3BC5048E]
Track 11 accurately ripped (confidence 2) [E56E22E6]
Track 12 accurately ripped (confidence 2) [CE166C89]

All tracks accurately ripped

End of status report

REM GENRE Rock
REM DATE 1996
REM DISCID A40CB00C
REM COMMENT “ExactAudioCopy v1.0b1”
PERFORMER “ZZ Top”
TITLE “Rhythmeen”
FILE “ZZ Top – Rhythmeen.flac” WAVE
TRACK 01 AUDIO
TITLE “Rhythmeen”
PERFORMER “ZZ Top”
INDEX 01 00:00:00
TRACK 02 AUDIO
TITLE “Bang Bang”
PERFORMER “ZZ Top”
INDEX 00 03:52:57
INDEX 01 03:53:30
TRACK 03 AUDIO
TITLE “Black Fly”
PERFORMER “ZZ Top”
INDEX 00 08:20:72
INDEX 01 08:21:72
TRACK 04 AUDIO
TITLE “What’s Up With That”
PERFORMER “ZZ Top”
INDEX 00 11:53:32
INDEX 01 11:55:10
TRACK 05 AUDIO
TITLE “Vincent Price Blues”
PERFORMER “ZZ Top”
INDEX 00 17:14:52
INDEX 01 17:15:40
TRACK 06 AUDIO
TITLE “Zipper Job”
PERFORMER “ZZ Top”
INDEX 01 23:19:40
TRACK 07 AUDIO
TITLE “Hairdresser”
PERFORMER “ZZ Top”
INDEX 00 27:33:30
INDEX 01 27:34:22
TRACK 08 AUDIO
TITLE “She’s Just Killing Me”
PERFORMER “ZZ Top”
INDEX 00 31:22:07
INDEX 01 31:23:60
TRACK 09 AUDIO
TITLE “My Mind Is Gone”
PERFORMER “ZZ Top”
INDEX 00 36:19:02
INDEX 01 36:21:22
TRACK 10 AUDIO
TITLE “Loaded”
PERFORMER “ZZ Top”
INDEX 01 40:27:57
TRACK 11 AUDIO
TITLE “Prettyhead”
PERFORMER “ZZ Top”
INDEX 00 44:14:50
INDEX 01 44:15:60
TRACK 12 AUDIO
TITLE “Hummbucking Part 2”
PERFORMER “ZZ Top”
INDEX 00 48:53:05
INDEX 01 48:55:70

Leave a Reply

Your email address will not be published. Required fields are marked *

This site uses Akismet to reduce spam. Learn how your comment data is processed.