ZZ Top – Recycler




No Cover available

Artist: ZZ Top
Year: 1990
Genre: Rock
Notes: Discogs
Add. Notes:
Watch Songs on: YouTube
Cover incl.: Yes
Encoder: FLAC
Bitrate: ~900 kBit/s (44.1 kHz/16 Bit/s)
Log & Cue incl.: Yes/Yes
Size: 256,9 MB
Password: “slam” (without ” “)


All Downloads/Hosters are compatible

Download 1
KatFile.com
Turbobit.net
Rapidgator.net
FileFactory.com
Download 2
KatFile.com
Turbobit.net
Rapidgator.net
FileFactory.com

Tracklist:

1 Concrete And Steel 3:49
2 Lovething 3:26
3 Penthouse Eyes 3:47
4 Tell It 4:49
5 My Head's In Mississippi 4:25
6 Decision Or Collision 4:03
7 Give It Up 3:34
8 2000 Blues 4:45
9 Burger Man 3:20
10 Doubleback 3:57

EAC-Log, CUE-Sheed & NFO:

Click to open spoiler
Exact Audio Copy V1.0 beta 1 from 15. November 2010

EAC extraction logfile from 3. April 2011, 23:03

ZZ Top / Recycler

Used drive : Optiarc DVD-ROM DDU1675S Adapter: 4 ID: 0

Read mode : Secure
Utilize accurate stream : Yes
Defeat audio cache : Yes
Make use of C2 pointers : No

Read offset correction : 6
Overread into Lead-In and Lead-Out : No
Fill up missing offset samples with silence : Yes
Delete leading and trailing silent blocks : No
Null samples used in CRC calculations : Yes
Used interface : Installed external ASPI interface

Used output format : User Defined Encoder
Selected bitrate : 1024 kBit/s
Quality : High
Add ID3 tag : No
Command line compressor : D:\Rec Install\lossless\lossless\Exact Audio Copy 0.9b4 + APE WV & FLAC Encoders\FLAC.EXE
Additional command line options : -8 -V %s

TOC of the extracted CD

Track | Start | Length | Start sector | End sector
———————————————————
1 | 0:00.32 | 3:49.15 | 32 | 17221
2 | 3:49.47 | 3:25.70 | 17222 | 32666
3 | 7:15.42 | 3:47.18 | 32667 | 49709
4 | 11:02.60 | 4:48.52 | 49710 | 71361
5 | 15:51.37 | 4:25.05 | 71362 | 91241
6 | 20:16.42 | 4:02.70 | 91242 | 109461
7 | 24:19.37 | 3:33.73 | 109462 | 125509
8 | 27:53.35 | 4:45.20 | 125510 | 146904
9 | 32:38.55 | 3:19.57 | 146905 | 161886
10 | 35:58.37 | 3:56.73 | 161887 | 179659

Range status and errors

Selected range

Filename G:\# MY\ZZ Top – Discography (1970-2008)\1990 – Recycler\ZZ Top – Recycler.wav

Peak level 100.0 %
Extraction speed 0.4 X
Range quality 100.0 %
Test CRC 987F35E2
Copy CRC 987F35E2
Copy OK

No errors occurred

AccurateRip summary

Track 1 accurately ripped (confidence 74) [D184E95C]
Track 2 accurately ripped (confidence 2) [E16C9CAE]
Track 3 accurately ripped (confidence 73) [E9E9CECB]
Track 4 accurately ripped (confidence 2) [C04C1C1B]
Track 5 accurately ripped (confidence 2) [86EB7999]
Track 6 accurately ripped (confidence 2) [C4A9BCE1]
Track 7 accurately ripped (confidence 2) [CA5FC094]
Track 8 accurately ripped (confidence 2) [C1D7747E]
Track 9 accurately ripped (confidence 2) [4354A189]
Track 10 accurately ripped (confidence 2) [D8BFB58E]

All tracks accurately ripped

End of status report

REM GENRE Rock
REM DATE 1990
REM DISCID 7B095B0A
REM COMMENT “ExactAudioCopy v1.0b1”
PERFORMER “ZZ Top”
TITLE “Recycler”
FILE “ZZ Top – Recycler.flac” WAVE
TRACK 01 AUDIO
TITLE “Concrete And Steel”
PERFORMER “ZZ Top”
INDEX 00 00:00:00
INDEX 01 00:00:32
TRACK 02 AUDIO
TITLE “Lovething”
PERFORMER “ZZ Top”
INDEX 01 03:49:47
TRACK 03 AUDIO
TITLE “Penthouse Eyes”
PERFORMER “ZZ Top”
INDEX 01 07:15:42
TRACK 04 AUDIO
TITLE “Tell It”
PERFORMER “ZZ Top”
INDEX 01 11:02:60
TRACK 05 AUDIO
TITLE “My Head’s In Mississippi”
PERFORMER “ZZ Top”
INDEX 01 15:51:37
TRACK 06 AUDIO
TITLE “Decision Or Collision”
PERFORMER “ZZ Top”
INDEX 00 20:12:40
INDEX 01 20:16:42
TRACK 07 AUDIO
TITLE “Give It Up”
PERFORMER “ZZ Top”
INDEX 00 24:18:00
INDEX 01 24:19:37
TRACK 08 AUDIO
TITLE “2000 Blues”
PERFORMER “ZZ Top”
INDEX 00 27:51:42
INDEX 01 27:53:35
TRACK 09 AUDIO
TITLE “Burger Man”
PERFORMER “ZZ Top”
INDEX 00 32:35:20
INDEX 01 32:38:55
TRACK 10 AUDIO
TITLE “Doubleback”
PERFORMER “ZZ Top”
INDEX 01 35:58:37


Leave a Reply

Your email address will not be published. Required fields are marked *

This site uses Akismet to reduce spam. Learn how your comment data is processed.