ZZ Top – One Foot In The Blues




Artist: ZZ Top
Year: 1994
Genre: Rock
Notes: Discogs
Add. Notes:
Encoder: FLAC
Bitrate: ~900 kBit/s (VBR)
Size: 466,28 MB
Password: “slam” (without ” “)


Tracklist:

1	Brown Sugar	5:20
2	Just Got Back From Baby s	4:09
3	A Fool For Your Stockings	4:16
4	I Need You Tonight	6:15
5	She Loves My Automobile	2:23
6	Hi Fi Mama	2:24
7	Hot, Blue And Righteous	3:17
8	My Head s In Mississippi	4:20
9	Lowdown In The Street	2:49
10	If I Could Only Flag Her Down	3:39
11	Apologies To Pearly	2:44
12	Sure Got Cold After The Rain Fell	6:47
13	Bar-B-Q	3:21
14	Old Man	3:32
15	Certified Blues	3:25
16	2000 Blues	4:42
17	Heaven, Hell Or Houston	2:32

EAC-Log, CUE-Sheed & NFO:

Click to open spoiler
Exact Audio Copy V1.0 beta 3 from 29. August 2011

EAC extraction logfile from 18. March 2015, 22:12

ZZ Top / One Foot In The Blues

Used drive : Optiarc DVD-ROM DDU1675S Adapter: 3 ID: 0

Read mode : Secure
Utilize accurate stream : Yes
Defeat audio cache : Yes
Make use of C2 pointers : No

Read offset correction : 6
Overread into Lead-In and Lead-Out : No
Fill up missing offset samples with silence : Yes
Delete leading and trailing silent blocks : No
Null samples used in CRC calculations : Yes
Used interface : Native Win32 interface for Win NT & 2000

Used output format : User Defined Encoder
Selected bitrate : 1024 kBit/s
Quality : High
Add ID3 tag : No
Command line compressor : C:\Program Files (x86)\Exact Audio Copy\FLAC\FLAC.EXE
Additional command line options : -V -8 -T “Date=%year%” -T “Genre=%genre%” %source%

TOC of the extracted CD

Track | Start | Length | Start sector | End sector
———————————————————
1 | 0:00.00 | 5:21.50 | 0 | 24124
2 | 5:21.50 | 4:11.00 | 24125 | 42949
3 | 9:32.50 | 4:16.25 | 42950 | 62174
4 | 13:49.00 | 6:16.50 | 62175 | 90424
5 | 20:05.50 | 2:23.05 | 90425 | 101154
6 | 22:28.55 | 2:24.50 | 101155 | 112004
7 | 24:53.30 | 3:17.32 | 112005 | 126811
8 | 28:10.62 | 4:21.03 | 126812 | 146389
9 | 32:31.65 | 2:49.70 | 146390 | 159134
10 | 35:21.60 | 3:39.40 | 159135 | 175599
11 | 39:01.25 | 2:45.00 | 175600 | 187974
12 | 41:46.25 | 6:47.70 | 187975 | 218569
13 | 48:34.20 | 3:22.30 | 218570 | 233749
14 | 51:56.50 | 3:31.65 | 233750 | 249639
15 | 55:28.40 | 3:26.55 | 249640 | 265144
16 | 58:55.20 | 4:43.20 | 265145 | 286389
17 | 63:38.40 | 2:32.52 | 286390 | 297841

Range status and errors

Selected range

Filename E:\Torrent\# MY\ZZ Top – Discography (1970-2012)\1994 – One Foot In The Blues\ZZ Top – One Foot In The Blues.wav

Peak level 100.0 %
Extraction speed 9.1 X
Range quality 100.0 %
Test CRC F6DB44D1
Copy CRC F6DB44D1
Copy OK

No errors occurred

AccurateRip summary

Track 1 accurately ripped (confidence 26) [2AE1CA08] (AR v2)
Track 2 accurately ripped (confidence 27) [2818DC30] (AR v2)
Track 3 accurately ripped (confidence 27) [68F723CD] (AR v2)
Track 4 accurately ripped (confidence 28) [EAB24E25] (AR v2)
Track 5 accurately ripped (confidence 28) [F8B0AE5F] (AR v2)
Track 6 accurately ripped (confidence 27) [281A8870] (AR v2)
Track 7 accurately ripped (confidence 27) [B28EC7AC] (AR v2)
Track 8 accurately ripped (confidence 27) [F4A91B48] (AR v2)
Track 9 accurately ripped (confidence 27) [13B6A772] (AR v2)
Track 10 accurately ripped (confidence 27) [23112902] (AR v2)
Track 11 accurately ripped (confidence 28) [25985017] (AR v2)
Track 12 accurately ripped (confidence 28) [A8B7EE96] (AR v2)
Track 13 accurately ripped (confidence 27) [9E232FE7] (AR v2)
Track 14 accurately ripped (confidence 28) [6354D672] (AR v2)
Track 15 accurately ripped (confidence 27) [112CC857] (AR v2)
Track 16 accurately ripped (confidence 27) [3AD5BAB9] (AR v2)
Track 17 accurately ripped (confidence 28) [7F808582] (AR v2)

All tracks accurately ripped

End of status report

—- CUETools DB Plugin V2.1.3

[CTDB TOCID: vvy8qXIM0HvmNGQxfo952AvTJy0-] found, Submit result: vvy8qXIM0HvmNGQxfo952AvTJy0- has been confirmed
[e271abbb] (80/90) Accurately ripped
[2ac79051] (01/90) No match
[e471bb94] (01/90) No match
[a9b5d4c5] (01/90) No match
[7d8b2f5f] (01/90) No match
[39e40d37] (01/90) No match
[c455c9bd] (01/90) No match
[8c26f3ae] (01/90) No match
[af701844] (01/90) No match
[ba55aa76] (01/90) No match
[1be8ea68] (01/90) No match

==== Log checksum 050521699B47805483C24B7CC546F8AB0502CBB6D855ACFE37B6E6F1E3A9246B ====

REM GENRE Rock
REM DATE 1994
REM DISCID DA0F8311
REM COMMENT “ExactAudioCopy v1.0b3”
CATALOG 0093624581529
PERFORMER “ZZ Top”
TITLE “One Foot In The Blues”
FILE “ZZ Top – One Foot In The Blues.flac” WAVE
TRACK 01 AUDIO
TITLE “Brown Sugar”
PERFORMER “ZZ Top”
INDEX 01 00:00:00
TRACK 02 AUDIO
TITLE “Just Got Back From Baby’s”
PERFORMER “ZZ Top”
INDEX 00 05:20:65
INDEX 01 05:21:50
TRACK 03 AUDIO
TITLE “A Fool For Your Stockings”
PERFORMER “ZZ Top”
INDEX 00 09:30:57
INDEX 01 09:32:50
TRACK 04 AUDIO
TITLE “I Need You Tonight”
PERFORMER “ZZ Top”
INDEX 00 13:47:57
INDEX 01 13:49:00
TRACK 05 AUDIO
TITLE “She Loves My Automobile”
PERFORMER “ZZ Top”
INDEX 00 20:04:00
INDEX 01 20:05:50
TRACK 06 AUDIO
TITLE “Hi Fi Mama”
PERFORMER “ZZ Top”
INDEX 01 22:28:55
TRACK 07 AUDIO
TITLE “Hot, Blue And Righteous”
PERFORMER “ZZ Top”
INDEX 00 24:52:07
INDEX 01 24:53:30
TRACK 08 AUDIO
TITLE “My Head’s In Mississippi”
PERFORMER “ZZ Top”
INDEX 00 28:09:50
INDEX 01 28:10:62
TRACK 09 AUDIO
TITLE “Lowdown In The Street”
PERFORMER “ZZ Top”
INDEX 00 32:31:32
INDEX 01 32:31:65
TRACK 10 AUDIO
TITLE “If I Could Only Flag Her Down”
PERFORMER “ZZ Top”
INDEX 00 35:21:00
INDEX 01 35:21:60
TRACK 11 AUDIO
TITLE “Apologies To Pearly”
PERFORMER “ZZ Top”
INDEX 00 39:00:42
INDEX 01 39:01:25
TRACK 12 AUDIO
TITLE “Sure Got Cold After The Rain Fell”
PERFORMER “ZZ Top”
INDEX 01 41:46:25
TRACK 13 AUDIO
TITLE “Bar-B-Q”
PERFORMER “ZZ Top”
INDEX 01 48:34:20
TRACK 14 AUDIO
TITLE “Old Man”
PERFORMER “ZZ Top”
INDEX 00 51:55:47
INDEX 01 51:56:50
TRACK 15 AUDIO
TITLE “Certified Blues”
PERFORMER “ZZ Top”
INDEX 01 55:28:40
TRACK 16 AUDIO
TITLE “2000 Blues”
PERFORMER “ZZ Top”
INDEX 00 58:53:45
INDEX 01 58:55:20
TRACK 17 AUDIO
TITLE “Heaven, Hell Or Houston”
PERFORMER “ZZ Top”
INDEX 00 63:36:70
INDEX 01 63:38:40

Leave a Reply

Your email address will not be published. Required fields are marked *

This site uses Akismet to reduce spam. Learn how your comment data is processed.