ZZ Top – Live! Greatest Hits From Around The World




Artist: ZZ Top
Year: 2016
Genre: Rock
Notes: Discogs
Add. Notes:
Encoder: FLAC
Bitrate: ~1000 kBit/s (VBR)
Size: 504,94 MB
Password: “slam” (without ” “)


Tracklist:

1	Got Me Under Pressure (Live In New York City)
2	Beer Drinkers & Hell Raisers (Live In Las Vegas)
3	Cheap Sunglasses (Live In Paris)	
4	Waiting' For The Bus (Live In Nashville)	
5	Jesus Just Left Chicago (Live In Nashville)
6	Legs (Live In Sao Paolo)	
7	Sharp Dressed Man (Live In Los Angeles)
8	Rough Boy (Live In London)	
9	Pincushion (Live In Berlin)	
10	La Grange (Live In Dallas)	
11	I'm Bad, I'm Nationwide (Live In Vancouver)
12	Tube Snake Boogie (Live In Rome)	
13	Gimmie All Your Lovin' (Live In Houston)	
14	Tush (Live In Tush)	
15	Sixteen Tons (Live In London)

EAC-Log, CUE-Sheed & NFO:

Click to open spoiler
Exact Audio Copy V1.1 from 23. June 2015

EAC extraction logfile from 4. March 2017, 14:56

ZZ Top / Live! Greatest Hits From Around The World

Used drive : ASUS DRW-24B1ST Adapter: 1 ID: 1

Read mode : Secure
Utilize accurate stream : Yes
Defeat audio cache : Yes
Make use of C2 pointers : No

Read offset correction : 6
Overread into Lead-In and Lead-Out : No
Fill up missing offset samples with silence : Yes
Delete leading and trailing silent blocks : No
Null samples used in CRC calculations : Yes
Used interface : Native Win32 interface
for Win NT & 2000

Used output format : User Defined Encoder
Selected bitrate : 1024 kBit/s
Quality : High
Add ID3 tag : No
Command line compressor : C:\Program Files
(x86)\Exact Audio Copy\Flac\flac.exe
Additional command line options : -V -8 -T “Date=%
year%” -T “Genre=%genre%” %source%

TOC of the extracted CD

Track | Start | Length | Start sector | End sector
———————————————————
1 | 0:00.00 | 4:19.73 | 0 | 19497
2 | 4:19.73 | 3:39.29 | 19498 | 35951
3 | 7:59.27 | 4:05.36 | 35952 | 54362
4 | 12:04.63 | 3:00.00 | 54363 | 67862
5 | 15:04.63 | 4:40.09 | 67863 | 88871
6 | 19:44.72 | 5:13.67 | 88872 | 112413
7 | 24:58.64 | 4:41.57 | 112414 | 133545
8 | 29:40.46 | 5:31.72 | 133546 | 158442
9 | 35:12.43 | 4:27.12 | 158443 | 178479
10 | 39:39.55 | 5:47.53 | 178480 | 204557
11 | 45:27.33 | 4:45.13 | 204558 | 225945
12 | 50:12.46 | 3:28.59 | 225946 | 241604
13 | 53:41.30 | 4:47.73 | 241605 | 263202
14 | 58:29.28 | 3:42.32 | 263203 | 279884
15 | 62:11.60 | 3:17.56 | 279885 | 294715

Range status and errors

Selected range

Filename E:\Torrent\# MY\# Подготовка раздач\ZZ
Top\2016 – Live! Greatest Hits From Around The World
\ZZ Top – Live! Greatest Hits From Around The World.wav

Peak level 100.0 %
Extraction speed 5.9 X
Range quality 99.9 %
Test CRC B52F14F3
Copy CRC B52F14F3
Copy OK

No errors occurred

AccurateRip summary

Track 1 accurately ripped (confidence 18) [31A0B65B]
(AR v2)
Track 2 accurately ripped (confidence 18) [B112F60F]
(AR v2)
Track 3 accurately ripped (confidence 18) [8996E3B9]
(AR v2)
Track 4 accurately ripped (confidence 18) [EECBB4AD]
(AR v2)
Track 5 accurately ripped (confidence 18) [045FA3DC]
(AR v2)
Track 6 accurately ripped (confidence 18) [752F108A]
(AR v2)
Track 7 accurately ripped (confidence 18) [821FB0CC]
(AR v2)
Track 8 accurately ripped (confidence 18) [AC2A5C51]
(AR v2)
Track 9 accurately ripped (confidence 18) [80463604]
(AR v2)
Track 10 accurately ripped (confidence 18) [27881D8B]
(AR v2)
Track 11 accurately ripped (confidence 18) [4F625DB1]
(AR v2)
Track 12 accurately ripped (confidence 18) [8B0DF74E]
(AR v2)
Track 13 accurately ripped (confidence 18) [8B61CC11]
(AR v2)
Track 14 accurately ripped (confidence 18) [A96250AE]
(AR v2)
Track 15 accurately ripped (confidence 18) [CB616A02]
(AR v2)

All tracks accurately ripped

End of status report

—- CUETools DB Plugin V2.1.6

[CTDB TOCID: rge1L8.xsAsxS_FmUl9JAiNvUKw-] found
Submit result: rge1L8.xsAsxS_FmUl9JAiNvUKw- has been
confirmed
Track | CTDB Status
1 | (67/67) Accurately ripped
2 | (67/67) Accurately ripped
3 | (67/67) Accurately ripped
4 | (67/67) Accurately ripped
5 | (67/67) Accurately ripped
6 | (67/67) Accurately ripped
7 | (67/67) Accurately ripped
8 | (67/67) Accurately ripped
9 | (67/67) Accurately ripped
10 | (67/67) Accurately ripped
11 | (67/67) Accurately ripped
12 | (67/67) Accurately ripped
13 | (67/67) Accurately ripped
14 | (67/67) Accurately ripped
15 | (67/67) Accurately ripped

==== Log checksum
88F91EC5B3A65BB23A06E6EEE5BEC1EC4916EBDE13A6E
C931B60E85790FF31BD ====

REM GENRE Rock
REM DATE 2016
REM DISCID B40F590F
REM COMMENT “ExactAudioCopy v1.1”
PERFORMER “ZZ Top”
TITLE “Live! Greatest Hits From Around The World”
FILE “ZZ Top – Live! Greatest Hits From Around The
World.flac” WAVE
TRACK 01 AUDIO
TITLE “Got Me Under Pressure”
PERFORMER “ZZ Top”
ISRC QHJGD1600006
INDEX 01 00:00:00
TRACK 02 AUDIO
TITLE “Beer Drinkers & Hell Raisers”
PERFORMER “ZZ Top”
ISRC QHJGD1600007
INDEX 00 04:17:73
INDEX 01 04:19:73
TRACK 03 AUDIO
TITLE “Cheap Sunglasses”
PERFORMER “ZZ Top”
ISRC QHJGD1600008
INDEX 00 07:57:27
INDEX 01 07:59:27
TRACK 04 AUDIO
TITLE “Waitin’ On The Bus”
PERFORMER “ZZ Top”
ISRC QHJGD1600009
INDEX 00 12:02:63
INDEX 01 12:04:63
TRACK 05 AUDIO
TITLE “Jesus Just Left Chicago”
PERFORMER “ZZ Top”
ISRC QHJGD1600010
INDEX 01 15:04:63
TRACK 06 AUDIO
TITLE “Legs”
PERFORMER “ZZ Top”
ISRC QHJGD1600011
INDEX 00 19:42:72
INDEX 01 19:44:72
TRACK 07 AUDIO
TITLE “Sharp Dressed Man”
PERFORMER “ZZ Top”
ISRC QHJGD1600012
INDEX 00 24:56:64
INDEX 01 24:58:64
TRACK 08 AUDIO
TITLE “Rough Boy”
PERFORMER “ZZ Top”
ISRC QHJGD1600013
INDEX 00 29:38:46
INDEX 01 29:40:46
TRACK 09 AUDIO
TITLE “Pincushion”
PERFORMER “ZZ Top”
ISRC QHJGD1600014
INDEX 00 35:10:43
INDEX 01 35:12:43
TRACK 10 AUDIO
TITLE “La Grange”
PERFORMER “ZZ Top”
ISRC QHJGD1600015
INDEX 00 39:37:55
INDEX 01 39:39:55
TRACK 11 AUDIO
TITLE “I’m Bad, I’m Nationwide”
PERFORMER “ZZ Top”
ISRC QHJGD1600016
INDEX 00 45:25:33
INDEX 01 45:27:33
TRACK 12 AUDIO
TITLE “Tube Snake Boogie”
PERFORMER “ZZ Top”
ISRC QHJGD1600017
INDEX 00 50:10:46
INDEX 01 50:12:46
TRACK 13 AUDIO
TITLE “Gimme All Your Lovin'”
PERFORMER “ZZ Top”
ISRC QHJGD1600018
INDEX 00 53:39:30
INDEX 01 53:41:30
TRACK 14 AUDIO
TITLE “Tush”
PERFORMER “ZZ Top”
ISRC QHJGD1600019
INDEX 00 58:27:28
INDEX 01 58:29:28
TRACK 15 AUDIO
TITLE “Sixteen Tons”
PERFORMER “ZZ Top”
ISRC QHJGD1600020
INDEX 00 62:09:60
INDEX 01 62:11:60

Leave a Reply

Your email address will not be published. Required fields are marked *

This site uses Akismet to reduce spam. Learn how your comment data is processed.