ZZ Top – Live From Texas




Artist: ZZ Top
Year: 2008
Genre: Rock
Notes: Discogs
Add. Notes:
Encoder: FLAC
Bitrate: ~900 kBit/s (VBR)
Size: 547,57 MB
Password: “slam” (without ” “)


Tracklist:

1	Got Me Under Pressure	4:24
2	Waitin  For The Bus	2:54
3	Jesus Just Left Chicago	4:48
4	I m Bad, I m Nationwide	5:10
5	Cheap Sunglasses	4:42
6	Pearl Necklace	5:14
7	Just Got Paid	6:37
8	Rough Boy	6:02
9	Blues Intro	1:05
10	Blue Jean Blues	4:08
11	Gimme All Your Lovin 	4:32
12	Sharp Dressed Man	4:39
13	Legs	4:59
14	Tube Snake Boogie	3:00
15	La Grange	7:40
16	Tush	5:53

EAC-Log, CUE-Sheed & NFO:

Click to open spoiler
Exact Audio Copy V1.0 beta 1 from 15. November 2010

EAC extraction logfile from 6. April 2011, 23:59

ZZ Top / Live From Texas

Used drive : Optiarc DVD-ROM DDU1675S Adapter: 4 ID: 0

Read mode : Secure
Utilize accurate stream : Yes
Defeat audio cache : Yes
Make use of C2 pointers : No

Read offset correction : 6
Overread into Lead-In and Lead-Out : No
Fill up missing offset samples with silence : Yes
Delete leading and trailing silent blocks : No
Null samples used in CRC calculations : Yes
Used interface : Installed external ASPI interface

Used output format : User Defined Encoder
Selected bitrate : 1024 kBit/s
Quality : High
Add ID3 tag : No
Command line compressor : D:\Rec Install\lossless\lossless\Exact Audio Copy 0.9b4 + APE WV & FLAC Encoders\FLAC.EXE
Additional command line options : -8 -V %s

TOC of the extracted CD

Track | Start | Length | Start sector | End sector
———————————————————
1 | 0:00.00 | 4:24.52 | 0 | 19851
2 | 4:24.52 | 2:54.34 | 19852 | 32935
3 | 7:19.11 | 4:48.48 | 32936 | 54583
4 | 12:07.59 | 5:11.24 | 54584 | 77932
5 | 17:19.08 | 4:42.40 | 77933 | 99122
6 | 22:01.48 | 5:14.67 | 99123 | 122739
7 | 27:16.40 | 6:38.17 | 122740 | 152606
8 | 33:54.57 | 6:02.52 | 152607 | 179808
9 | 39:57.34 | 1:05.28 | 179809 | 184711
10 | 41:02.62 | 4:09.14 | 184712 | 203400
11 | 45:12.01 | 4:32.60 | 203401 | 223860
12 | 49:44.61 | 4:39.28 | 223861 | 244813
13 | 54:24.14 | 4:59.45 | 244814 | 267283
14 | 59:23.59 | 3:00.74 | 267284 | 280857
15 | 62:24.58 | 7:40.41 | 280858 | 315398
16 | 70:05.24 | 5:54.22 | 315399 | 341970

Range status and errors

Selected range

Filename G:\# MY\ZZ Top – Discography (1970-2008)\2008 – Live From Texas\ZZ Top – Live From Texas.wav

Peak level 99.7 %
Extraction speed 0.3 X
Range quality 100.0 %
Test CRC 24012A49
Copy CRC 24012A49
Copy OK

No errors occurred

AccurateRip summary

Track 1 accurately ripped (confidence 2) [BDCEEC21]
Track 2 accurately ripped (confidence 2) [9B2EEE97]
Track 3 accurately ripped (confidence 2) [20832D7F]
Track 4 accurately ripped (confidence 2) [CA86226B]
Track 5 accurately ripped (confidence 2) [E31BFDE4]
Track 6 accurately ripped (confidence 2) [5DBDE53D]
Track 7 accurately ripped (confidence 2) [A7A28121]
Track 8 accurately ripped (confidence 2) [E3260919]
Track 9 accurately ripped (confidence 2) [C7803E86]
Track 10 accurately ripped (confidence 2) [E5BDEB6D]
Track 11 accurately ripped (confidence 2) [B4DAA064]
Track 12 accurately ripped (confidence 2) [412A64AD]
Track 13 accurately ripped (confidence 2) [08E507AD]
Track 14 accurately ripped (confidence 2) [67F3C925]
Track 15 accurately ripped (confidence 2) [70E7D97F]
Track 16 accurately ripped (confidence 2) [63E63373]

All tracks accurately ripped

End of status report

——————————

REM GENRE Rock
REM DATE 2008
REM DISCID EA11CF10
REM COMMENT “ExactAudioCopy v1.0b1”
PERFORMER “ZZ Top”
TITLE “Live From Texas”
FILE “ZZ Top – Live From Texas.flac” WAVE
TRACK 01 AUDIO
TITLE “Got Me Under Pressure”
PERFORMER “ZZ Top”
INDEX 01 00:00:00
TRACK 02 AUDIO
TITLE “Waitin’ For The Bus”
PERFORMER “ZZ Top”
INDEX 01 04:24:52
TRACK 03 AUDIO
TITLE “Jesus Just Left Chicago”
PERFORMER “ZZ Top”
INDEX 01 07:19:11
TRACK 04 AUDIO
TITLE “I’m Bad, I’m Nationwide”
PERFORMER “ZZ Top”
INDEX 01 12:07:59
TRACK 05 AUDIO
TITLE “Cheap Sunglasses”
PERFORMER “ZZ Top”
INDEX 01 17:19:08
TRACK 06 AUDIO
TITLE “Pearl Necklace”
PERFORMER “ZZ Top”
INDEX 01 22:01:48
TRACK 07 AUDIO
TITLE “Just Got Paid”
PERFORMER “ZZ Top”
INDEX 01 27:16:40
TRACK 08 AUDIO
TITLE “Rough Boy”
PERFORMER “ZZ Top”
INDEX 01 33:54:57
TRACK 09 AUDIO
TITLE “Blues Intro”
PERFORMER “ZZ Top”
INDEX 01 39:57:34
TRACK 10 AUDIO
TITLE “Blue Jean Blues”
PERFORMER “ZZ Top”
INDEX 01 41:02:62
TRACK 11 AUDIO
TITLE “Gmme All Your Lovin'”
PERFORMER “ZZ Top”
INDEX 01 45:12:01
TRACK 12 AUDIO
TITLE “Sharp Dressed Man”
PERFORMER “ZZ Top”
INDEX 01 49:44:61
TRACK 13 AUDIO
TITLE “Legs”
PERFORMER “ZZ Top”
INDEX 01 54:24:14
TRACK 14 AUDIO
TITLE “Tube Snake Boogie”
PERFORMER “ZZ Top”
INDEX 01 59:23:59
TRACK 15 AUDIO
TITLE “La Grange”
PERFORMER “ZZ Top”
INDEX 01 62:24:58
TRACK 16 AUDIO
TITLE “Tush”
PERFORMER “ZZ Top”
INDEX 01 70:05:24

Leave a Reply

Your email address will not be published. Required fields are marked *

This site uses Akismet to reduce spam. Learn how your comment data is processed.