ZZ Top – La Futura




Artist: ZZ Top
Year: 2012
Genre: Rock
Notes: Discogs
Add. Notes:
Encoder: FLAC
Bitrate: ~1000 kBit/s (VBR)
Size: 358,12 MB
Password: “slam” (without ” “)


Tracklist:

1	I Gotsta Get Paid	4:03
2	Chartreuse	2:57
3	Consumption	3:49
4	Over You	4:30
5	Heartache In Blue	4:09
6	I Don t Wanna Lose, Lose, You	4:22
7	Flyin  High	4:18
8	It s Too Easy Manana	4:48
9	Big Shiny Nine	3:11
10	Have A Little Mercy	3:19

EAC-Log, CUE-Sheed & NFO:

Click to open spoiler
Exact Audio Copy V1.0 beta 3 from 29. August 2011

EAC extraction logfile from 3. October 2012, 21:54

ZZ Top / La Futura

Used drive : Optiarc DVD-ROM DDU1675S Adapter: 3 ID: 0

Read mode : Secure
Utilize accurate stream : Yes
Defeat audio cache : Yes
Make use of C2 pointers : No

Read offset correction : 6
Overread into Lead-In and Lead-Out : No
Fill up missing offset samples with silence : Yes
Delete leading and trailing silent blocks : No
Null samples used in CRC calculations : Yes
Used interface : Native Win32 interface for Win NT & 2000

Used output format : User Defined Encoder
Selected bitrate : 1024 kBit/s
Quality : High
Add ID3 tag : No
Command line compressor : C:\Program Files (x86)\Exact Audio Copy\Flac\flac.exe
Additional command line options : -V -8 -T “Date=%year%” -T “Genre=%genre%” %source%

TOC of the extracted CD

Track | Start | Length | Start sector | End sector
———————————————————
1 | 0:00.15 | 4:03.06 | 15 | 18245
2 | 4:03.21 | 2:57.30 | 18246 | 31550
3 | 7:00.51 | 3:48.41 | 31551 | 48691
4 | 10:49.17 | 4:30.33 | 48692 | 68974
5 | 15:19.50 | 4:09.22 | 68975 | 87671
6 | 19:28.72 | 4:21.61 | 87672 | 107307
7 | 23:50.58 | 4:17.61 | 107308 | 126643
8 | 28:08.44 | 4:48.24 | 126644 | 148267
9 | 32:56.68 | 3:11.09 | 148268 | 162601
10 | 36:08.02 | 3:23.34 | 162602 | 177860
11 | 39:31.36 | 3:29.60 | 177861 | 193595
12 | 43:01.21 | 3:03.36 | 193596 | 207356

Range status and errors

Selected range

Filename F:\Torrent\# MY\ZZ Top – Discography (1970-2008)\2012 – La Futura (+2 Bonus tracks)\ZZ Top – La Futura.wav

Peak level 100.0 %
Extraction speed 4.6 X
Range quality 100.0 %
Test CRC 93B06952
Copy CRC 93B06952
Copy OK

No errors occurred

AccurateRip summary

Track 1 accurately ripped (confidence 1) [08332239] (AR v1)
Track 2 accurately ripped (confidence 1) [6997D0C4] (AR v1)
Track 3 accurately ripped (confidence 1) [63072A37] (AR v1)
Track 4 accurately ripped (confidence 1) [8CB9F5BE] (AR v1)
Track 5 accurately ripped (confidence 1) [E1AA0F47] (AR v1)
Track 6 accurately ripped (confidence 1) [7B51CBEE] (AR v1)
Track 7 accurately ripped (confidence 1) [4B16819A] (AR v1)
Track 8 accurately ripped (confidence 1) [107DA1E3] (AR v1)
Track 9 accurately ripped (confidence 1) [27BCABBE] (AR v1)
Track 10 accurately ripped (confidence 1) [AF2BAAA7] (AR v1)
Track 11 accurately ripped (confidence 1) [9AD02B5E] (AR v1)
Track 12 accurately ripped (confidence 1) [20B547C4] (AR v1)

All tracks accurately ripped

End of status report

==== Log checksum 33410BC17F6A6B2B26FB2C5BF3283E3D8E290D19A25A994EE1D504C4A65939D5 ====

REM GENRE Rock
REM DATE 2012
REM DISCID 940ACC0C
REM COMMENT “ExactAudioCopy v1.0b3”
PERFORMER “ZZ Top”
TITLE “La Futura”
FILE “ZZ Top – La Futura.flac” WAVE
TRACK 01 AUDIO
TITLE “I Gotsta Get Paid”
PERFORMER “ZZ Top”
FLAGS DCP
INDEX 00 00:00:00
INDEX 01 00:00:15
TRACK 02 AUDIO
TITLE “Chartreuse”
PERFORMER “ZZ Top”
FLAGS DCP
INDEX 01 04:03:21
TRACK 03 AUDIO
TITLE “Consumption”
PERFORMER “ZZ Top”
FLAGS DCP
INDEX 01 07:00:51
TRACK 04 AUDIO
TITLE “Over You”
PERFORMER “ZZ Top”
FLAGS DCP
INDEX 00 10:48:18
INDEX 01 10:49:17
TRACK 05 AUDIO
TITLE “Heartache In Blue”
PERFORMER “ZZ Top”
FLAGS DCP
INDEX 00 15:18:65
INDEX 01 15:19:50
TRACK 06 AUDIO
TITLE “I Don’t Wanna Lose, Lose, You”
PERFORMER “ZZ Top”
FLAGS DCP
INDEX 01 19:28:72
TRACK 07 AUDIO
TITLE “Flyin’ High”
PERFORMER “ZZ Top”
FLAGS DCP
INDEX 00 23:49:47
INDEX 01 23:50:58
TRACK 08 AUDIO
TITLE “It’s Too Easy Manana”
PERFORMER “ZZ Top”
FLAGS DCP
INDEX 00 28:08:41
INDEX 01 28:08:44
TRACK 09 AUDIO
TITLE “Big Shiny Nine”
PERFORMER “ZZ Top”
FLAGS DCP
INDEX 00 32:56:19
INDEX 01 32:56:68
TRACK 10 AUDIO
TITLE “Have A Little Mercy”
PERFORMER “ZZ Top”
FLAGS DCP
INDEX 00 36:07:71
INDEX 01 36:08:02
TRACK 11 AUDIO
TITLE “Threshold Of A Breakdown (Bonus track)”
PERFORMER “ZZ Top”
FLAGS DCP
INDEX 00 39:26:47
INDEX 01 39:31:36
TRACK 12 AUDIO
TITLE “Drive By Lover (Bonus track)”
PERFORMER “ZZ Top”
FLAGS DCP
INDEX 00 43:00:42
INDEX 01 43:01:21

Leave a Reply

Your email address will not be published. Required fields are marked *

This site uses Akismet to reduce spam. Learn how your comment data is processed.