ZZ Top – Greatest Hits




No Cover available

Artist: ZZ Top
Year: 1992
Genre: Rock
Notes: Discogs
Add. Notes:
Watch Songs on: YouTube
Cover incl.: Yes
Encoder: FLAC
Bitrate: ~900 kBit/s (44.1 kHz/16 Bit/s)
Log & Cue incl.: Yes/Yes
Size: 523,4 MB
Password: “slam” (without ” “)


All Downloads/Hosters are compatible

Download 1
KatFile.com
Turbobit.net
Rapidgator.net
FileFactory.com
Download 2
KatFile.com
Turbobit.net
Rapidgator.net
FileFactory.com

Tracklist:

1 Gimme All Your Lovin' 3:59
2 Sharp Dressed Man 4:13
3 Rough Boy 4:50
4 Tush 2:14
5 My Head's In Mississippi 4:21
6 Pearl Necklace 4:01
7 I'm Bad, I'm Nationwide 4:45
8 Viva Las Vegas 4:47
9 Doubleback 3:53
10 Gun Love 3:43
11 Got Me Under Pressure 3:59
12 Give It Up 3:32
13 Cheap Sunglasses 4:46
14 Sleeping Bag 4:02
15 Planet Of Women 4:04
16 La Grange 3:51
17 Tube Snake Boogie 3:02
18 Legs 4:31

EAC-Log, CUE-Sheed & NFO:

Click to open spoiler
REM GENRE Rock
REM DATE 1992
REM DISCID 12111212
REM COMMENT “ExactAudioCopy v1.0b3”
PERFORMER “ZZ Top”
TITLE “Greatest Hits”
FILE “ZZ Top – Greatest Hits.flac” WAVE
TRACK 01 AUDIO
TITLE “Gimme All Your Lovin'”
PERFORMER “ZZ Top”
INDEX 01 00:00:00
TRACK 02 AUDIO
TITLE “Sharp Dressed Man”
PERFORMER “ZZ Top”
INDEX 01 03:59:50
TRACK 03 AUDIO
TITLE “Rough Boy”
PERFORMER “ZZ Top”
INDEX 00 08:13:05
INDEX 01 08:14:23
TRACK 04 AUDIO
TITLE “Tush”
PERFORMER “ZZ Top”
INDEX 00 13:05:33
INDEX 01 13:06:50
TRACK 05 AUDIO
TITLE “My Head’s In Mississippi”
PERFORMER “ZZ Top”
INDEX 00 15:21:68
INDEX 01 15:22:35
TRACK 06 AUDIO
TITLE “Pearl Necklace”
PERFORMER “ZZ Top”
INDEX 01 19:42:03
TRACK 07 AUDIO
TITLE “I’m Bad, I’m Nationwide”
PERFORMER “ZZ Top”
INDEX 00 23:46:73
INDEX 01 23:47:45
TRACK 08 AUDIO
TITLE “Viva Las Vegas”
PERFORMER “ZZ Top”
INDEX 01 28:34:10
TRACK 09 AUDIO
TITLE “Doubleback”
PERFORMER “ZZ Top”
INDEX 01 33:20:30
TRACK 10 AUDIO
TITLE “Gun Love”
PERFORMER “ZZ Top”
INDEX 00 37:15:50
INDEX 01 37:16:28
TRACK 11 AUDIO
TITLE “Got Me Under Pressure”
PERFORMER “ZZ Top”
INDEX 01 40:56:18
TRACK 12 AUDIO
TITLE “Give It Up”
PERFORMER “ZZ Top”
INDEX 00 44:55:70
INDEX 01 44:56:53
TRACK 13 AUDIO
TITLE “Cheap Sunglasses”
PERFORMER “ZZ Top”
INDEX 01 48:26:05
TRACK 14 AUDIO
TITLE “Sleeping Bag”
PERFORMER “ZZ Top”
INDEX 01 53:13:15
TRACK 15 AUDIO
TITLE “Planet Of Women”
PERFORMER “ZZ Top”
INDEX 01 57:16:55
TRACK 16 AUDIO
TITLE “La Grange”
PERFORMER “ZZ Top”
INDEX 00 61:21:05
INDEX 01 61:21:65
TRACK 17 AUDIO
TITLE “Tube Snake Boogie”
PERFORMER “ZZ Top”
INDEX 00 65:13:28
INDEX 01 65:14:10
TRACK 18 AUDIO
TITLE “Legs”
PERFORMER “ZZ Top”
INDEX 00 68:17:53
INDEX 01 68:18:35
Exact Audio Copy V1.0 beta 3 from 29. August 2011

EAC extraction logfile from 5. August 2013, 1:57

ZZ Top / Greatest Hits

Used drive : Optiarc DVD-ROM DDU1675S Adapter: 3 ID: 0

Read mode : Secure
Utilize accurate stream : Yes
Defeat audio cache : Yes
Make use of C2 pointers : No

Read offset correction : 6
Overread into Lead-In and Lead-Out : No
Fill up missing offset samples with silence : Yes
Delete leading and trailing silent blocks : No
Null samples used in CRC calculations : Yes
Used interface : Native Win32 interface for Win NT & 2000

Used output format : User Defined Encoder
Selected bitrate : 1024 kBit/s
Quality : High
Add ID3 tag : No
Command line compressor : C:\Program Files (x86)\Exact Audio Copy\Flac\flac.exe
Additional command line options : -V -8 -T “Date=%year%” -T “Genre=%genre%” %source%

TOC of the extracted CD

Track | Start | Length | Start sector | End sector
———————————————————
1 | 0:00.00 | 3:59.50 | 0 | 17974
2 | 3:59.50 | 4:14.48 | 17975 | 37072
3 | 8:14.23 | 4:52.27 | 37073 | 58999
4 | 13:06.50 | 2:15.60 | 59000 | 69184
5 | 15:22.35 | 4:19.43 | 69185 | 88652
6 | 19:42.03 | 4:05.42 | 88653 | 107069
7 | 23:47.45 | 4:46.40 | 107070 | 128559
8 | 28:34.10 | 4:46.20 | 128560 | 150029
9 | 33:20.30 | 3:55.73 | 150030 | 167727
10 | 37:16.28 | 3:39.65 | 167728 | 184217
11 | 40:56.18 | 4:00.35 | 184218 | 202252
12 | 44:56.53 | 3:29.27 | 202253 | 217954
13 | 48:26.05 | 4:47.10 | 217955 | 239489
14 | 53:13.15 | 4:03.40 | 239490 | 257754
15 | 57:16.55 | 4:05.10 | 257755 | 276139
16 | 61:21.65 | 3:52.20 | 276140 | 293559
17 | 65:14.10 | 3:04.25 | 293560 | 307384
18 | 68:18.35 | 4:31.48 | 307385 | 327757

Range status and errors

Selected range

Filename F:\Torrent\# MY\ZZ Top – Discography (1970-2012)\1992 – Greatest Hits\ZZ Top – Greatest Hits.wav

Peak level 100.0 %
Extraction speed 9.3 X
Range quality 99.9 %
Test CRC 5436FB6D
Copy CRC 5436FB6D
Copy OK

No errors occurred

AccurateRip summary

Track 1 accurately ripped (confidence 66) [71DF3F90] (AR v2)
Track 2 accurately ripped (confidence 65) [B43C0D2E] (AR v2)
Track 3 accurately ripped (confidence 60) [C755FC5F] (AR v2)
Track 4 accurately ripped (confidence 61) [90E4E4D2] (AR v2)
Track 5 accurately ripped (confidence 65) [2B865C0F] (AR v2)
Track 6 accurately ripped (confidence 65) [4275A199] (AR v2)
Track 7 accurately ripped (confidence 61) [C3EEB60C] (AR v2)
Track 8 accurately ripped (confidence 61) [A6367DAB] (AR v2)
Track 9 accurately ripped (confidence 64) [8C89F477] (AR v2)
Track 10 accurately ripped (confidence 66) [52D008E7] (AR v2)
Track 11 accurately ripped (confidence 66) [B92FCE63] (AR v2)
Track 12 accurately ripped (confidence 66) [CF8241D4] (AR v2)
Track 13 accurately ripped (confidence 62) [9689A670] (AR v2)
Track 14 accurately ripped (confidence 66) [0979072C] (AR v2)
Track 15 accurately ripped (confidence 68) [8AC61C23] (AR v2)
Track 16 accurately ripped (confidence 66) [1758A927] (AR v2)
Track 17 accurately ripped (confidence 65) [17F290F4] (AR v2)
Track 18 accurately ripped (confidence 65) [08FCC8DE] (AR v2)

All tracks accurately ripped

End of status report

==== Log checksum 621F1EFCC67D5BF72915CDDDF7A5700C4BD565BBF33817D43C659E2AA4C85D90 ====


Leave a Reply

Your email address will not be published. Required fields are marked *

Enter the text from the image below
 

This site uses Akismet to reduce spam. Learn how your comment data is processed.