ZZ Top – Fandango! (Remastered Deluxe Edition)




No Cover available

Artist: ZZ Top
Year: 1975/2006
Genre: Rock
Notes: Discogs
Add. Notes: Remastered Deluxe Edition
Watch Songs on: YouTube
Cover incl.: Yes
Encoder: FLAC
Bitrate: ~900 kBit/s (44.1 kHz/16 Bit/s)
Log & Cue incl.: Yes/Yes
Size: 292,7 MB
Password: “slam” (without ” “)


All Downloads/Hosters are compatible

Download 1
KatFile.com
Turbobit.net
Rapidgator.net
FileFactory.com
Download 2
KatFile.com
Turbobit.net
Rapidgator.net
FileFactory.com

Tracklist:

1 Thunderbird 2:49
2 Jailhouse Rock 1:56
Backdoor Medley (9:23)
3a Backdoor Love Affair 1:09
3b Mellow Down Easy 3:39
3c Backdoor Love Affair No.2 2:04
3d Long Distance Boogie 2:31
4 Nasty Dogs And Funky Kings 2:42
5 Blue Jean Blues 4:42
6 Balinese 2:37
7 Mexican Blackbird 3:06
8 Heard It On The X 2:23
9 Tush 2:14

Bonus Tracks
10 Heard It On The X (Live) 2:36
11 Jailhouse Rock (Live) 1:53
12 Tush (Live) 3:43

EAC-Log, CUE-Sheed & NFO:

Click to open spoiler
Exact Audio Copy V1.0 beta 1 from 15. November 2010

EAC extraction logfile from 3. April 2011, 19:20

ZZ Top / Fandango!

Used drive : Optiarc DVD-ROM DDU1675S Adapter: 4 ID: 0

Read mode : Secure
Utilize accurate stream : Yes
Defeat audio cache : Yes
Make use of C2 pointers : No

Read offset correction : 6
Overread into Lead-In and Lead-Out : No
Fill up missing offset samples with silence : Yes
Delete leading and trailing silent blocks : No
Null samples used in CRC calculations : Yes
Used interface : Installed external ASPI interface

Used output format : User Defined Encoder
Selected bitrate : 1024 kBit/s
Quality : High
Add ID3 tag : No
Command line compressor : D:\Rec Install\lossless\lossless\Exact Audio Copy 0.9b4 + APE WV & FLAC Encoders\FLAC.EXE
Additional command line options : -8 -V %s

TOC of the extracted CD

Track | Start | Length | Start sector | End sector
———————————————————
1 | 0:00.00 | 4:10.14 | 0 | 18763
2 | 4:10.14 | 1:55.73 | 18764 | 27461
3 | 6:06.12 | 9:51.53 | 27462 | 71839
4 | 15:57.65 | 2:44.22 | 71840 | 84161
5 | 18:42.12 | 4:44.30 | 84162 | 105491
6 | 23:26.42 | 2:36.55 | 105492 | 117246
7 | 26:03.22 | 3:05.47 | 117247 | 131168
8 | 29:08.69 | 2:25.55 | 131169 | 142098
9 | 31:34.49 | 2:17.51 | 142099 | 152424
10 | 33:52.25 | 2:36.06 | 152425 | 164130
11 | 36:28.31 | 1:52.54 | 164131 | 172584
12 | 38:21.10 | 3:42.65 | 172585 | 189299

Range status and errors

Selected range

Filename G:\# MY\ZZ Top – Discography (1970-2008)\1975 – Fandango!\ZZ Top – Fandango!.wav

Peak level 100.0 %
Extraction speed 0.3 X
Range quality 99.9 %
Test CRC FF41A373
Copy CRC FF41A373
Copy OK

No errors occurred

AccurateRip summary

Track 1 accurately ripped (confidence 2) [BE908D29]
Track 2 accurately ripped (confidence 2) [FB80109D]
Track 3 accurately ripped (confidence 2) [8E9C321A]
Track 4 accurately ripped (confidence 2) [ECEFA0FC]
Track 5 accurately ripped (confidence 2) [5BB9E684]
Track 6 accurately ripped (confidence 2) [CC2EC493]
Track 7 accurately ripped (confidence 2) [C9958E47]
Track 8 accurately ripped (confidence 2) [C22BB582]
Track 9 accurately ripped (confidence 2) [98454F8F]
Track 10 accurately ripped (confidence 2) [1B112C8F]
Track 11 accurately ripped (confidence 2) [BD87904F]
Track 12 accurately ripped (confidence 2) [708E0A09]

All tracks accurately ripped

End of status report

REM GENRE Rock
REM DATE 1975
REM DISCID 9B09DC0C
REM COMMENT “ExactAudioCopy v1.0b1”
PERFORMER “ZZ Top”
TITLE “Fandango!”
FILE “ZZ Top – Fandango!.flac” WAVE
TRACK 01 AUDIO
TITLE “Thunderbird”
PERFORMER “ZZ Top”
INDEX 01 00:00:00
TRACK 02 AUDIO
TITLE “Jailhouse Rock”
PERFORMER “ZZ Top”
INDEX 01 04:10:14
TRACK 03 AUDIO
TITLE “Backdoor Medley: Backdoor Love Affair / Mellow Down Easy / Backdoor Love Affa…”
PERFORMER “ZZ Top”
INDEX 01 06:06:12
TRACK 04 AUDIO
TITLE “Nasty Dogs And Funky Kings”
PERFORMER “ZZ Top”
INDEX 00 15:57:45
INDEX 01 15:57:65
TRACK 05 AUDIO
TITLE “Blue Jean Blues”
PERFORMER “ZZ Top”
INDEX 00 18:40:16
INDEX 01 18:42:12
TRACK 06 AUDIO
TITLE “Balinese”
PERFORMER “ZZ Top”
INDEX 00 23:24:59
INDEX 01 23:26:42
TRACK 07 AUDIO
TITLE “Mexican Blackbird”
PERFORMER “ZZ Top”
INDEX 01 26:03:22
TRACK 08 AUDIO
TITLE “Heard In On The X”
PERFORMER “ZZ Top”
INDEX 01 29:08:69
TRACK 09 AUDIO
TITLE “Tush”
PERFORMER “ZZ Top”
INDEX 00 31:33:55
INDEX 01 31:34:49
TRACK 10 AUDIO
TITLE “Heart It On The X (Live) (Bonus track)”
PERFORMER “ZZ Top”
INDEX 00 33:51:12
INDEX 01 33:52:25
TRACK 11 AUDIO
TITLE “Jailhouse Rock (Live) (Bonus track)”
PERFORMER “ZZ Top”
INDEX 01 36:28:31
TRACK 12 AUDIO
TITLE “Tush (Live) (Bonus track)”
PERFORMER “ZZ Top”
INDEX 01 38:21:10


Leave a Reply

Your email address will not be published. Required fields are marked *

Enter the text from the image below
 

This site uses Akismet to reduce spam. Learn how your comment data is processed.