ZZ Top – El Loco




Artist: ZZ Top
Year: 1981
Genre: Rock
Notes: Discogs
Add. Notes:
Encoder: FLAC
Bitrate: ~800 kBit/s (VBR)
Size: 237,89 MB
Password: “slam” (without ” “)


Tracklist:

1	Tube Snake Boogie	3:02
2	I Wanna Drive You Home	4:44
3	Ten Foot Pole	4:19
4	Leila	3:13
5	Don't Tease Me	4:19
6	It's So Hard	5:12
7	Pearl Necklace	4:01
8	Groovy Little Hippie Pad	2:40
9	Heaven, Hell Or Houston	2:31
10	Party On The Patio	2:48

Click to open spoiler
Exact Audio Copy V1.0 beta 1 from 15. November 2010

EAC extraction logfile from 3. April 2011, 21:45

ZZ Top / El Loco

Used drive : Optiarc DVD-ROM DDU1675S Adapter: 4 ID: 0

Read mode : Secure
Utilize accurate stream : Yes
Defeat audio cache : Yes
Make use of C2 pointers : No

Read offset correction : 6
Overread into Lead-In and Lead-Out : No
Fill up missing offset samples with silence : Yes
Delete leading and trailing silent blocks : No
Null samples used in CRC calculations : Yes
Used interface : Installed external ASPI interface

Used output format : User Defined Encoder
Selected bitrate : 1024 kBit/s
Quality : High
Add ID3 tag : No
Command line compressor : D:\Rec Install\lossless\lossless\Exact Audio Copy 0.9b4 + APE WV & FLAC Encoders\FLAC.EXE
Additional command line options : -8 -V %s

TOC of the extracted CD

Track | Start | Length | Start sector | End sector
———————————————————
1 | 0:00.00 | 3:06.03 | 0 | 13952
2 | 3:06.03 | 4:48.60 | 13953 | 35612
3 | 7:54.63 | 4:23.65 | 35613 | 55402
4 | 12:18.53 | 3:17.37 | 55403 | 70214
5 | 15:36.15 | 4:24.15 | 70215 | 90029
6 | 20:00.30 | 5:11.53 | 90030 | 113407
7 | 25:12.08 | 4:07.15 | 113408 | 131947
8 | 29:19.23 | 2:44.42 | 131948 | 144289
9 | 32:03.65 | 2:33.53 | 144290 | 155817
10 | 34:37.43 | 2:48.57 | 155818 | 168474

Range status and errors

Selected range

Filename G:\# MY\ZZ Top – Discography (1970-2008)\1981 – El Loco\ZZ Top – El Loco.wav

Peak level 100.0 %
Extraction speed 0.3 X
Range quality 100.0 %
Test CRC E8583C8B
Copy CRC E8583C8B
Copy OK

No errors occurred

AccurateRip summary

Track 1 accurately ripped (confidence 12) [9440DCF9]
Track 2 accurately ripped (confidence 12) [8063D3CC]
Track 3 accurately ripped (confidence 12) [F58BEE0C]
Track 4 accurately ripped (confidence 12) [EE4BE64E]
Track 5 accurately ripped (confidence 12) [536DED20]
Track 6 accurately ripped (confidence 12) [55EB9F4B]
Track 7 accurately ripped (confidence 12) [75BE3FDA]
Track 8 accurately ripped (confidence 12) [CCEAB16C]
Track 9 accurately ripped (confidence 12) [BCFB6A5B]
Track 10 accurately ripped (confidence 12) [121EE779]

All tracks accurately ripped

End of status report

————————

REM GENRE Rock
REM DATE 1981
REM DISCID 8508C60A
REM COMMENT “ExactAudioCopy v1.0b1”
PERFORMER “ZZ Top”
TITLE “El Loco”
FILE “ZZ Top – El Loco.flac” WAVE
TRACK 01 AUDIO
TITLE “Tube Snake Boogie”
PERFORMER “ZZ Top”
INDEX 01 00:00:00
TRACK 02 AUDIO
TITLE “I Wanna Drive You Home”
PERFORMER “ZZ Top”
INDEX 00 03:04:33
INDEX 01 03:06:03
TRACK 03 AUDIO
TITLE “Ten Foot Pole”
PERFORMER “ZZ Top”
INDEX 00 07:52:00
INDEX 01 07:54:63
TRACK 04 AUDIO
TITLE “Leila”
PERFORMER “ZZ Top”
INDEX 00 12:15:08
INDEX 01 12:18:53
TRACK 05 AUDIO
TITLE “Don’t Tease Me”
PERFORMER “ZZ Top”
INDEX 00 15:34:03
INDEX 01 15:36:15
TRACK 06 AUDIO
TITLE “It’s So Hard”
PERFORMER “ZZ Top”
INDEX 00 19:57:20
INDEX 01 20:00:30
TRACK 07 AUDIO
TITLE “Pearl Necklace”
PERFORMER “ZZ Top”
INDEX 00 25:10:68
INDEX 01 25:12:08
TRACK 08 AUDIO
TITLE “Groovy Little Hippie Pad”
PERFORMER “ZZ Top”
INDEX 00 29:17:08
INDEX 01 29:19:23
TRACK 09 AUDIO
TITLE “Heaven, Hell Or Houston”
PERFORMER “ZZ Top”
INDEX 00 32:00:70
INDEX 01 32:03:65
TRACK 10 AUDIO
TITLE “Party On The Patio”
PERFORMER “ZZ Top”
INDEX 00 34:36:20
INDEX 01 34:37:43

Leave a Reply

Your email address will not be published. Required fields are marked *

This site uses Akismet to reduce spam. Learn how your comment data is processed.