ZZ Top – Degüello




Artist: ZZ Top
Year: 1979
Genre: Rock
Notes: Discogs
Add. Notes:
Cover incl.: Yes
Encoder: FLAC
Bitrate: ~900 kBit/s (44.1 kHz/16 Bit/s)
Log & Cue incl.: Yes
Size: 216,58 MB
Password: “slam” (without ” “)


All Downloads/Hosters are compatible

Download 1
Turbobit.net
Rapidgator.net
UploadEver.com
KatFile.com
UsersDrive.com
Download 2
Turbobit.net
Rapidgator.net
UploadEver.com
KatFile.com
UsersDrive.com
Download 3
Turbobit.net
Rapidgator.net
UploadEver.com
KatFile.com
UsersDrive.com

Tracklist:

1. I Thank You
2. She Loves My Automobile
3. Im Bad, Im Nationwide
4. A Fool For Your Stockings
5. Manic Mechanic
6. Dust My Broom
7. Lowdown In The Street
8. Hi Fi Mama
9. Cheap Sunglasses
10. Esther Be The One

EAC-Log, CUE-Sheed & NFO:

Click to open spoiler
Exact Audio Copy V1.0 beta 1 from 15. November 2010

EAC extraction logfile from 3. April 2011, 20:10

ZZ Top / Deguello

Used drive : Optiarc DVD-ROM DDU1675S Adapter: 4 ID: 0

Read mode : Secure
Utilize accurate stream : Yes
Defeat audio cache : Yes
Make use of C2 pointers : No

Read offset correction : 6
Overread into Lead-In and Lead-Out : No
Fill up missing offset samples with silence : Yes
Delete leading and trailing silent blocks : No
Null samples used in CRC calculations : Yes
Used interface : Installed external ASPI interface

Used output format : User Defined Encoder
Selected bitrate : 1024 kBit/s
Quality : High
Add ID3 tag : No
Command line compressor : D:\Rec Install\lossless\lossless\Exact Audio Copy 0.9b4 + APE WV & FLAC Encoders\FLAC.EXE
Additional command line options : -8 -V %s

TOC of the extracted CD

Track | Start | Length | Start sector | End sector
———————————————————
1 | 0:00.00 | 3:26.10 | 0 | 15459
2 | 3:26.10 | 2:23.30 | 15460 | 26214
3 | 5:49.40 | 4:53.08 | 26215 | 48197
4 | 10:42.48 | 4:16.57 | 48198 | 67454
5 | 14:59.30 | 2:36.25 | 67455 | 79179
6 | 17:35.55 | 3:09.05 | 79180 | 93359
7 | 20:44.60 | 2:50.18 | 93360 | 106127
8 | 23:35.03 | 2:25.10 | 106128 | 117012
9 | 26:00.13 | 4:48.30 | 117013 | 138642
10 | 30:48.43 | 3:30.50 | 138643 | 154442

Range status and errors

Selected range

Filename G:\# MY\ZZ Top – Discography (1970-2008)\1979 – Deguello\ZZ Top – Deguello.wav

Peak level 100.0 %
Extraction speed 0.5 X
Range quality 100.0 %
Test CRC 1F2B54BD
Copy CRC 1F2B54BD
Copy OK

No errors occurred

AccurateRip summary

Track 1 accurately ripped (confidence 25) [E20805AB]
Track 2 accurately ripped (confidence 24) [17825EE7]
Track 3 accurately ripped (confidence 25) [86BCF9F9]
Track 4 accurately ripped (confidence 25) [C164AB12]
Track 5 accurately ripped (confidence 25) [F0082DF9]
Track 6 accurately ripped (confidence 25) [ABFC665F]
Track 7 accurately ripped (confidence 25) [4E09F888]
Track 8 accurately ripped (confidence 25) [65F1C140]
Track 9 accurately ripped (confidence 25) [6E68AE72]
Track 10 accurately ripped (confidence 23) [9324A4BD]

All tracks accurately ripped

End of status report

————————————————————————————-

REM GENRE Rock
REM DATE 1979
REM DISCID 70080B0A
REM COMMENT “ExactAudioCopy v1.0b1”
PERFORMER “ZZ Top”
TITLE “Deguello”
FILE “ZZ Top – Deguello.flac” WAVE
TRACK 01 AUDIO
TITLE “I Thank You”
PERFORMER “ZZ Top”
INDEX 01 00:00:00
TRACK 02 AUDIO
TITLE “She Loves My Automobile”
PERFORMER “ZZ Top”
INDEX 00 03:24:10
INDEX 01 03:26:10
TRACK 03 AUDIO
TITLE “I’m Bad, I’m Nationwide”
PERFORMER “ZZ Top”
INDEX 00 05:49:18
INDEX 01 05:49:40
TRACK 04 AUDIO
TITLE “A Fool For Your Stocking”
PERFORMER “ZZ Top”
INDEX 00 10:36:08
INDEX 01 10:42:48
TRACK 05 AUDIO
TITLE “Manic Mechanic”
PERFORMER “ZZ Top”
INDEX 00 14:56:55
INDEX 01 14:59:30
TRACK 06 AUDIO
TITLE “Dust My Broom”
PERFORMER “ZZ Top”
INDEX 00 17:34:70
INDEX 01 17:35:55
TRACK 07 AUDIO
TITLE “Lowdown In The Street”
PERFORMER “ZZ Top”
INDEX 00 20:42:73
INDEX 01 20:44:60
TRACK 08 AUDIO
TITLE “Hi Fi Mama”
PERFORMER “ZZ Top”
INDEX 00 23:34:00
INDEX 01 23:35:03
TRACK 09 AUDIO
TITLE “Cheap Sunglasses”
PERFORMER “ZZ Top”
INDEX 00 25:58:40
INDEX 01 26:00:13
TRACK 10 AUDIO
TITLE “Esther Be The One”
PERFORMER “ZZ Top”
INDEX 01 30:48:43

Leave a Reply

Your email address will not be published. Required fields are marked *

This site uses Akismet to reduce spam. Learn how your comment data is processed.