ZZ Top – Antenna




No Cover available

Artist: ZZ Top
Year: 1994
Genre: Rock
Notes: Discogs
Add. Notes:
Watch Songs on: YouTube
Cover incl.: Yes
Encoder: FLAC
Bitrate: ~900 kBit/s (44.1 kHz/16 Bit/s)
Log & Cue incl.: Yes/Yes
Size: 388,12 MB
Password: “slam” (without ” “)


All Downloads/Hosters are compatible

Download 1
KatFile.com
Turbobit.net
Rapidgator.net
FileFactory.com
Download 2
KatFile.com
Turbobit.net
Rapidgator.net
FileFactory.com

Tracklist:

1 Pincushion 4:33
2 Breakaway 4:57
3 World Of Swirl 4:08
4 Fuzzbox Voodoo 4:42
5 Girl In A T-Shirt 4:10
6 Antenna Head 4:42
7 PCH 3:57
8 Cherry Red 4:38
9 Cover Your Rig 5:49
10 Lizard Life 5:09
11 Deal Goin' Down 4:06
12 Everything 3:54

EAC-Log, CUE-Sheed & NFO:

Click to open spoiler
Exact Audio Copy V1.0 beta 1 from 15. November 2010

EAC extraction logfile from 3. April 2011, 23:32

ZZ Top / Antenna

Used drive : Optiarc DVD-ROM DDU1675S Adapter: 4 ID: 0

Read mode : Secure
Utilize accurate stream : Yes
Defeat audio cache : Yes
Make use of C2 pointers : No

Read offset correction : 6
Overread into Lead-In and Lead-Out : No
Fill up missing offset samples with silence : Yes
Delete leading and trailing silent blocks : No
Null samples used in CRC calculations : Yes
Used interface : Installed external ASPI interface

Used output format : User Defined Encoder
Selected bitrate : 1024 kBit/s
Quality : High
Add ID3 tag : No
Command line compressor : D:\Rec Install\lossless\lossless\Exact Audio Copy 0.9b4 + APE WV & FLAC Encoders\FLAC.EXE
Additional command line options : -8 -V %s

TOC of the extracted CD

Track | Start | Length | Start sector | End sector
———————————————————
1 | 0:00.00 | 4:33.27 | 0 | 20501
2 | 4:33.27 | 4:57.30 | 20502 | 42806
3 | 9:30.57 | 4:08.38 | 42807 | 61444
4 | 13:39.20 | 4:42.52 | 61445 | 82646
5 | 18:21.72 | 4:10.53 | 82647 | 101449
6 | 22:32.50 | 4:42.65 | 101450 | 122664
7 | 27:15.40 | 3:57.10 | 122665 | 140449
8 | 31:12.50 | 4:38.60 | 140450 | 161359
9 | 35:51.35 | 5:48.72 | 161360 | 187531
10 | 41:40.32 | 5:09.43 | 187532 | 210749
11 | 46:50.00 | 4:06.35 | 210750 | 229234
12 | 50:56.35 | 3:54.35 | 229235 | 246819

Range status and errors

Selected range

Filename G:\# MY\ZZ Top – Discography (1970-2008)\1994 – Antenna\ZZ Top – Antenna.wav

Peak level 100.0 %
Extraction speed 0.3 X
Range quality 100.0 %
Test CRC C202211D
Copy CRC C202211D
Copy OK

No errors occurred

AccurateRip summary

Track 1 accurately ripped (confidence 10) [73A6BF40]
Track 2 accurately ripped (confidence 10) [C1215730]
Track 3 accurately ripped (confidence 10) [D3031402]
Track 4 accurately ripped (confidence 10) [8E7DA8C5]
Track 5 accurately ripped (confidence 10) [FF85517B]
Track 6 accurately ripped (confidence 10) [4BCCB2D3]
Track 7 accurately ripped (confidence 10) [8488CBCE]
Track 8 accurately ripped (confidence 10) [1B1540B7]
Track 9 accurately ripped (confidence 10) [52FE4104]
Track 10 accurately ripped (confidence 10) [08BB7197]
Track 11 accurately ripped (confidence 10) [EE080703]
Track 12 accurately ripped (confidence 10) [5910A2EB]

All tracks accurately ripped

End of status report

REM GENRE Rock
REM DATE 1994
REM DISCID 910CDA0C
REM COMMENT “ExactAudioCopy v1.0b1”
PERFORMER “ZZ Top”
TITLE “Antenna”
FILE “ZZ Top – Antenna.flac” WAVE
TRACK 01 AUDIO
TITLE “Pincushion”
PERFORMER “ZZ Top”
INDEX 01 00:00:00
TRACK 02 AUDIO
TITLE “Breakaway”
PERFORMER “ZZ Top”
INDEX 01 04:33:27
TRACK 03 AUDIO
TITLE “World Of Swirl”
PERFORMER “ZZ Top”
INDEX 01 09:30:57
TRACK 04 AUDIO
TITLE “Fuzzbox Voodoo”
PERFORMER “ZZ Top”
INDEX 01 13:39:20
TRACK 05 AUDIO
TITLE “Girl In A T-Shirt”
PERFORMER “ZZ Top”
INDEX 00 18:21:20
INDEX 01 18:21:72
TRACK 06 AUDIO
TITLE “Antenna Head”
PERFORMER “ZZ Top”
INDEX 00 22:32:02
INDEX 01 22:32:50
TRACK 07 AUDIO
TITLE “PCH”
PERFORMER “ZZ Top”
INDEX 01 27:15:40
TRACK 08 AUDIO
TITLE “Cherry Red”
PERFORMER “ZZ Top”
INDEX 01 31:12:50
TRACK 09 AUDIO
TITLE “Cover Your Rig”
PERFORMER “ZZ Top”
INDEX 00 35:51:30
INDEX 01 35:51:35
TRACK 10 AUDIO
TITLE “Lizard Life”
PERFORMER “ZZ Top”
INDEX 01 41:40:32
TRACK 11 AUDIO
TITLE “Deal Goin’ Down”
PERFORMER “ZZ Top”
INDEX 00 46:49:72
INDEX 01 46:50:00
TRACK 12 AUDIO
TITLE “Everything”
PERFORMER “ZZ Top”
INDEX 01 50:56:35


Leave a Reply

Your email address will not be published. Required fields are marked *

This site uses Akismet to reduce spam. Learn how your comment data is processed.