ZSK – Discontent Hearts And Gasoline




Artist: ZSK
Year: 2006
Genre: Punk
Notes: Discogs
Add. Notes:
Cover incl.: Yes
Encoder: FLAC
Bitrate: ~1000 kBit/s (44.1 kHz/16 Bit/s)
Log & Cue incl.: Yes
Size: 370,51 MB
Password: “slam” (without ” “)


All Downloads/Hosters are compatible

Download 1
Turbobit.net
Rapidgator.net
KatFile.com
UploadRar.com
Download 2
Turbobit.net
Rapidgator.net
KatFile.com
UploadRar.com
Download 3
Turbobit.net
Rapidgator.net
KatFile.com
UploadRar.com

Tracklist:

1. Alles Steht Still
2. Wenn Der Letzte Vorhang Fällt
3. Kein Schritt Nach Vorn
4. Wenn So Viele Menschen Schweigen
5. Im Freien Fall
6. Festung Europa 
7. Geschichten Von Gestern
8. Gestorben Wird Später
9. Scherben
10. We Will Stop You
11. Irgendwann
12. 13 Minuten 
13. 24. August 1992

EAC-Log, CUE-Sheed & NFO:

Click to open spoiler
Exact Audio Copy V1.3 from 2. September 2016

EAC extraction logfile from 10. October 2018, 21:20

ZSK / Discontent Hearts And Gasoline

Used drive : PIONEER DVD-RW DVR-221L Adapter: 1 ID: 1

Read mode : Secure
Utilize accurate stream : Yes
Defeat audio cache : Yes
Make use of C2 pointers : No

Read offset correction : 6
Overread into Lead-In and Lead-Out : No
Fill up missing offset samples with silence : Yes
Delete leading and trailing silent blocks : No
Null samples used in CRC calculations : Yes
Used interface : Native Win32 interface for Win NT & 2000

Used output format : User Defined Encoder
Selected bitrate : 1024 kBit/s
Quality : High
Add ID3 tag : No
Command line compressor : C:\Program Files (x86)\Exact Audio Copy\Flac\flac.exe
Additional command line options : -V -8 -T “Date=%year%” -T “Genre=%genre%” %source%

TOC of the extracted CD

Track | Start | Length | Start sector | End sector
———————————————————
1 | 0:00.00 | 2:53.61 | 0 | 13035
2 | 2:53.61 | 3:29.23 | 13036 | 28733
3 | 6:23.09 | 3:04.09 | 28734 | 42542
4 | 9:27.18 | 3:28.28 | 42543 | 58170
5 | 12:55.46 | 0:37.48 | 58171 | 60993
6 | 13:33.19 | 4:04.14 | 60994 | 79307
7 | 17:37.33 | 5:22.23 | 79308 | 103480
8 | 22:59.56 | 2:58.60 | 103481 | 116890
9 | 25:58.41 | 4:05.38 | 116891 | 135303
10 | 30:04.04 | 3:17.28 | 135304 | 150106
11 | 33:21.32 | 2:27.56 | 150107 | 161187
12 | 35:49.13 | 2:58.00 | 161188 | 174537
13 | 38:47.13 | 4:31.54 | 174538 | 194916

Range status and errors

Selected range

Filename D:\Mutineer\ZSK – Discontent Hearts And Gasoline\ZSK – Discontent Hearts And Gasoline.wav

Peak level 100.0 %
Extraction speed 7.0 X
Range quality 99.9 %
Test CRC 2A83C337
Copy CRC 2A83C337
Copy OK

No errors occurred

AccurateRip summary

Track 1 accurately ripped (confidence 3) [4F1B9905] (AR v2)
Track 2 accurately ripped (confidence 3) [7B7011EC] (AR v2)
Track 3 accurately ripped (confidence 3) [9C495C4A] (AR v2)
Track 4 accurately ripped (confidence 3) [8FB6AA48] (AR v2)
Track 5 accurately ripped (confidence 3) [5BFFA131] (AR v2)
Track 6 accurately ripped (confidence 3) [318FD80A] (AR v2)
Track 7 accurately ripped (confidence 3) [4153597A] (AR v2)
Track 8 accurately ripped (confidence 3) [EEA406A0] (AR v2)
Track 9 accurately ripped (confidence 3) [556EAEED] (AR v2)
Track 10 accurately ripped (confidence 3) [44CF5113] (AR v2)
Track 11 accurately ripped (confidence 3) [07AFE7B3] (AR v2)
Track 12 accurately ripped (confidence 3) [A726C0BA] (AR v2)
Track 13 accurately ripped (confidence 3) [F8BBA3D0] (AR v2)

All tracks accurately ripped

End of status report

==== Log checksum 1A1F7FE6D050170C0DEEC186EDDF9887F42CDC1D44F84BA8A14FB67B7AF79894 ====

REM GENRE “Punk Rock”
REM DATE 2006
REM DISCID AB0A260D
REM COMMENT “ExactAudioCopy v1.3”
PERFORMER “ZSK”
TITLE “Discontent Hearts And Gasoline”
REM COMPOSER “”
FILE “ZSK – Discontent Hearts And Gasoline.flac” WAVE
TRACK 01 AUDIO
TITLE “Alles Steht Still”
PERFORMER “ZSK”
REM COMPOSER “”
FLAGS DCP
INDEX 01 00:00:00
TRACK 02 AUDIO
TITLE “Wenn Der Letzte Vorhang Fallt”
PERFORMER “ZSK”
REM COMPOSER “”
FLAGS DCP
INDEX 01 02:53:61
TRACK 03 AUDIO
TITLE “Kein Schritt Nach Vorn”
PERFORMER “ZSK”
REM COMPOSER “”
FLAGS DCP
INDEX 01 06:23:09
TRACK 04 AUDIO
TITLE “Wenn So Viele Schweigen”
PERFORMER “ZSK”
REM COMPOSER “”
FLAGS DCP
INDEX 01 09:27:18
TRACK 05 AUDIO
TITLE “Im Freien Fall”
PERFORMER “ZSK”
REM COMPOSER “”
FLAGS DCP
INDEX 01 12:55:46
TRACK 06 AUDIO
TITLE “Festung Europa”
PERFORMER “ZSK”
REM COMPOSER “”
FLAGS DCP
INDEX 01 13:33:19
TRACK 07 AUDIO
TITLE “Geschichten Von Gestern”
PERFORMER “ZSK”
REM COMPOSER “”
FLAGS DCP
INDEX 01 17:37:33
TRACK 08 AUDIO
TITLE “Gestorben Wird Spater”
PERFORMER “ZSK”
REM COMPOSER “”
FLAGS DCP
INDEX 01 22:59:56
TRACK 09 AUDIO
TITLE “Scherben”
PERFORMER “ZSK”
REM COMPOSER “”
FLAGS DCP
INDEX 01 25:58:41
TRACK 10 AUDIO
TITLE “We Will Stop You”
PERFORMER “ZSK”
REM COMPOSER “”
FLAGS DCP
INDEX 01 30:04:04
TRACK 11 AUDIO
TITLE “Irgendwann”
PERFORMER “ZSK”
REM COMPOSER “”
FLAGS DCP
INDEX 01 33:21:32
TRACK 12 AUDIO
TITLE “13 Minuten”
PERFORMER “ZSK”
REM COMPOSER “”
FLAGS DCP
INDEX 01 35:49:13
TRACK 13 AUDIO
TITLE “24. August 1992”
PERFORMER “ZSK”
REM COMPOSER “”
FLAGS DCP
INDEX 01 38:47:13


Leave a Reply

Your email address will not be published. Required fields are marked *

This site uses Akismet to reduce spam. Learn how your comment data is processed.