Zebrahead – Zebrahead (Yellow)




No Cover available

Artist: Zebrahead
Year: 1998
Genre: Punk
Notes: Discogs
Add. Notes:
Watch Songs on: YouTube
Cover incl.: Yes
Encoder: FLAC
Bitrate: ~1000 kBit/s (44.1 kHz/16 Bit/s)
Log & Cue incl.: Yes/Yes
Size: 188,6 MB
Password: “slam” (without ” “)


All Downloads/Hosters are compatible

Download 1
KatFile.com
Turbobit.net
Rapidgator.net
FileFactory.com
Download 2
KatFile.com
Turbobit.net
Rapidgator.net
FileFactory.com

Tracklist:

1 Check 2:14
2 All I Need 3:09
3 Swing 2:38
4 Walk Away 3:18
5 Bootylicious Vinyl 3:27
6 Hate 1:59
7 Mindtrip 2:15
8 Crome 2:43
9 Jagoff 3:31
10 Song 10 2:10

EAC-Log, CUE-Sheed & NFO:

Click to open spoiler
Exact Audio Copy V0.99 prebeta 5 from 4. May 2009

EAC extraction logfile from 26. November 2009, 21:47

Zebrahead / (Yellow)

Used drive : HL-DT-STDVD-RAM GH22LS30 Adapter: 5 ID: 0

Read mode : Secure
Utilize accurate stream : Yes
Defeat audio cache : Yes
Make use of C2 pointers : No

Read offset correction : 102
Overread into Lead-In and Lead-Out : No
Fill up missing offset samples with silence : Yes
Delete leading and trailing silent blocks : No
Null samples used in CRC calculations : Yes
Used interface : Native Win32 interface for Win NT & 2000
Gap handling : Appended to previous track

Used output format : User Defined Encoder
Selected bitrate : 320 kBit/s
Quality : High
Add ID3 tag : No
Command line compressor : C:\Program Files (x86)\Exact Audio Copy\FLAC\FLAC.EXE
Additional command line options : -V -8 -T “artist=%a” -T “title=%t” -T “album=%g” -T “date=%y” -T “tracknumber=%n” -T “genre=%m” %s

TOC of the extracted CD

Track | Start | Length | Start sector | End sector
———————————————————
1 | 0:00.00 | 2:14.12 | 0 | 10061
2 | 2:14.12 | 3:09.00 | 10062 | 24236
3 | 5:23.12 | 2:38.68 | 24237 | 36154
4 | 8:02.05 | 3:18.22 | 36155 | 51026
5 | 11:20.27 | 3:27.68 | 51027 | 66619
6 | 14:48.20 | 1:59.33 | 66620 | 75577
7 | 16:47.53 | 2:15.06 | 75578 | 85708
8 | 19:02.59 | 2:43.30 | 85709 | 97963
9 | 21:46.14 | 3:31.13 | 97964 | 113801
10 | 25:17.27 | 2:10.61 | 113802 | 123612

Track 1

Filename C:\Waffles\Zebrahead – 1998 – (Yellow)\01 – Check.wav

Pre-gap length 0:00:02.00

Peak level 98.8 %
Track quality 99.9 %
Test CRC 8C98715F
Copy CRC 8C98715F
Cannot be verified as accurate (confidence 1) [9383FB8C], AccurateRip returned [0814E6D9]
Copy OK

Track 2

Filename C:\Waffles\Zebrahead – 1998 – (Yellow)\02 – All I Need.wav

Pre-gap length 0:00:01.45

Peak level 98.8 %
Track quality 100.0 %
Test CRC 28C28CA4
Copy CRC 28C28CA4
Cannot be verified as accurate (confidence 1) [3F5F8E76], AccurateRip returned [4CE8BAA4]
Copy OK

Track 3

Filename C:\Waffles\Zebrahead – 1998 – (Yellow)\03 – Swing.wav

Pre-gap length 0:00:01.45

Peak level 98.8 %
Track quality 100.0 %
Test CRC DB59E4CB
Copy CRC DB59E4CB
Cannot be verified as accurate (confidence 1) [A0DE8E5F], AccurateRip returned [D844614A]
Copy OK

Track 4

Filename C:\Waffles\Zebrahead – 1998 – (Yellow)\04 – Walk Away.wav

Pre-gap length 0:00:01.45

Peak level 98.8 %
Track quality 100.0 %
Test CRC 00B1A706
Copy CRC 00B1A706
Cannot be verified as accurate (confidence 1) [AA5ADCC3], AccurateRip returned [3B22B4EC]
Copy OK

Track 5

Filename C:\Waffles\Zebrahead – 1998 – (Yellow)\05 – Bootylicious Vinyl.wav

Pre-gap length 0:00:01.45

Peak level 98.8 %
Track quality 100.0 %
Test CRC 389906A6
Copy CRC 389906A6
Cannot be verified as accurate (confidence 1) [46298087], AccurateRip returned [D4500597]
Copy OK

Track 6

Filename C:\Waffles\Zebrahead – 1998 – (Yellow)\06 – Hate.wav

Pre-gap length 0:00:01.45

Peak level 96.6 %
Track quality 100.0 %
Test CRC 54879295
Copy CRC 54879295
Cannot be verified as accurate (confidence 1) [6935CB31], AccurateRip returned [B9EDE3D8]
Copy OK

Track 7

Filename C:\Waffles\Zebrahead – 1998 – (Yellow)\07 – Mindtrip.wav

Pre-gap length 0:00:01.45

Peak level 98.8 %
Track quality 100.0 %
Test CRC F1711656
Copy CRC F1711656
Cannot be verified as accurate (confidence 1) [800D6E24], AccurateRip returned [4E0984B3]
Copy OK

Track 8

Filename C:\Waffles\Zebrahead – 1998 – (Yellow)\08 – Crome.wav

Pre-gap length 0:00:01.45

Peak level 98.8 %
Track quality 100.0 %
Test CRC F1AFBAEC
Copy CRC F1AFBAEC
Cannot be verified as accurate (confidence 1) [872666F7], AccurateRip returned [5F8E58B8]
Copy OK

Track 9

Filename C:\Waffles\Zebrahead – 1998 – (Yellow)\09 – Jagoff.wav

Pre-gap length 0:00:01.45

Peak level 98.8 %
Track quality 99.9 %
Test CRC 5589DE85
Copy CRC 5589DE85
Cannot be verified as accurate (confidence 1) [CD0287C2], AccurateRip returned [61280918]
Copy OK

Track 10

Filename C:\Waffles\Zebrahead – 1998 – (Yellow)\10 – Song 10.wav

Pre-gap length 0:00:01.45

Peak level 96.5 %
Track quality 100.0 %
Test CRC D7C7C9BA
Copy CRC D7C7C9BA
Cannot be verified as accurate (confidence 1) [99136652], AccurateRip returned [974F7272]
Copy OK

No tracks could be verified as accurate
You may have a different pressing from the one(s) in the database

No errors occurred

End of status report

REM GENRE Pop
REM DATE 1998
REM DISCID 7706700A
REM COMMENT “ExactAudioCopy v0.99pb5”
FILE “Zebrahead – 1998 – (Yellow)\01 – Check.wav” WAVE
TRACK 01 AUDIO
INDEX 01 00:00:00
TRACK 02 AUDIO
INDEX 00 02:12:42
FILE “Zebrahead – 1998 – (Yellow)\02 – All I Need.wav” WAVE
INDEX 01 00:00:00
TRACK 03 AUDIO
INDEX 00 03:07:30
FILE “Zebrahead – 1998 – (Yellow)\03 – Swing.wav” WAVE
INDEX 01 00:00:00
TRACK 04 AUDIO
INDEX 00 02:37:23
FILE “Zebrahead – 1998 – (Yellow)\04 – Walk Away.wav” WAVE
INDEX 01 00:00:00
TRACK 05 AUDIO
INDEX 00 03:16:52
FILE “Zebrahead – 1998 – (Yellow)\05 – Bootylicious Vinyl.wav” WAVE
INDEX 01 00:00:00
TRACK 06 AUDIO
INDEX 00 03:26:23
FILE “Zebrahead – 1998 – (Yellow)\06 – Hate.wav” WAVE
INDEX 01 00:00:00
TRACK 07 AUDIO
INDEX 00 01:57:63
FILE “Zebrahead – 1998 – (Yellow)\07 – Mindtrip.wav” WAVE
INDEX 01 00:00:00
TRACK 08 AUDIO
INDEX 00 02:13:36
FILE “Zebrahead – 1998 – (Yellow)\08 – Crome.wav” WAVE
INDEX 01 00:00:00
TRACK 09 AUDIO
INDEX 00 02:41:60
FILE “Zebrahead – 1998 – (Yellow)\09 – Jagoff.wav” WAVE
INDEX 01 00:00:00
TRACK 10 AUDIO
INDEX 00 03:29:43
FILE “Zebrahead – 1998 – (Yellow)\10 – Song 10.wav” WAVE
INDEX 01 00:00:00


Leave a Reply

Your email address will not be published. Required fields are marked *

This site uses Akismet to reduce spam. Learn how your comment data is processed.