Zebrahead – Waste of Mind




No Cover available

Artist: Zebrahead
Year: 1998
Genre: Punk
Notes: Discogs
Add. Notes:
Watch Songs on: YouTube
Cover incl.: Yes
Encoder: FLAC
Bitrate: ~1000 kBit/s (44.1 kHz/16 Bit/s)
Log & Cue incl.: Yes/Yes
Size: 351,3 MB
Password: “slam” (without ” “)


All Downloads/Hosters are compatible

Download 1
KatFile.com
Turbobit.net
Rapidgator.net
FileFactory.com
Download 2
KatFile.com
Turbobit.net
Rapidgator.net
FileFactory.com

Tracklist:

1 Check 2:25
2 Get Back 3:31
3 The Real Me 3:58
4 Someday 3:02
5 Waste Of Mind 3:32
6 Feel This Way 3:44
7 Walk Away 3:22
8 Big Shot 3:00
9 Swing 2:50
10 Jag Off 3:25
11 Time 3:10
12 Move On 4:06
13 Fly Daze 4:34
14 Bootylicious Vinyl 3:27

EAC-Log, CUE-Sheed & NFO:

Click to open spoiler
Exact Audio Copy V0.99 prebeta 4 from 23. January 2008

EAC extraction logfile from 10. May 2009, 17:15

Zebrahead / Waste of Mind

Used drive : BENQ DVD DD DW1620 Adapter: 0 ID: 0

Read mode : Secure
Utilize accurate stream : Yes
Defeat audio cache : Yes
Make use of C2 pointers : No

Read offset correction : 618
Overread into Lead-In and Lead-Out : No
Fill up missing offset samples with silence : Yes
Delete leading and trailing silent blocks : No
Null samples used in CRC calculations : Yes
Used interface : Native Win32 interface for Win NT & 2000
Gap handling : Appended to previous track

Used output format : User Defined Encoder
Selected bitrate : 128 kBit/s
Quality : High
Add ID3 tag : No
Command line compressor : C:\Program Files\Exact Audio Copy\Flac\flac.exe
Additional command line options : -V -8 -T “artist=%a” -T “title=%t” -T “album=%g” -T “date=%y” -T “tracknumber=%n” -T “genre=%m” %s

TOC of the extracted CD

Track | Start | Length | Start sector | End sector
———————————————————
1 | 0:00.00 | 2:25.55 | 0 | 10929
2 | 2:25.55 | 3:31.72 | 10930 | 26826
3 | 5:57.52 | 3:58.05 | 26827 | 44681
4 | 9:55.57 | 3:02.18 | 44682 | 58349
5 | 12:58.00 | 3:32.50 | 58350 | 74299
6 | 16:30.50 | 3:44.65 | 74300 | 91164
7 | 20:15.40 | 3:22.72 | 91165 | 106386
8 | 23:38.37 | 3:00.03 | 106387 | 119889
9 | 26:38.40 | 2:51.30 | 119890 | 132744
10 | 29:29.70 | 3:25.60 | 132745 | 148179
11 | 32:55.55 | 3:11.32 | 148180 | 162536
12 | 36:07.12 | 4:08.33 | 162537 | 181169
13 | 40:15.45 | 4:33.35 | 181170 | 201679
14 | 44:49.05 | 3:26.50 | 201680 | 217179

Track 1

Filename D:\Seeding for what.cd\Zebrahead – Waste of Mind (1998) [FLAC]\01. Check.wav

Pre-gap length 0:00:02.00

Peak level 100.0 %
Track quality 100.0 %
Test CRC 421A0B21
Copy CRC 421A0B21
Accurately ripped (confidence 2) [68B75E6B]
Copy OK

Track 2

Filename D:\Seeding for what.cd\Zebrahead – Waste of Mind (1998) [FLAC]\02. Get Back.wav

Pre-gap length 0:00:07.86

Peak level 99.2 %
Track quality 100.0 %
Test CRC 719756E9
Copy CRC 719756E9
Accurately ripped (confidence 2) [2C75B654]
Copy OK

Track 3

Filename D:\Seeding for what.cd\Zebrahead – Waste of Mind (1998) [FLAC]\03. The Real Me.wav

Pre-gap length 0:00:07.86

Peak level 100.0 %
Track quality 99.9 %
Test CRC A893ECC8
Copy CRC A893ECC8
Accurately ripped (confidence 2) [24C9456B]
Copy OK

Track 4

Filename D:\Seeding for what.cd\Zebrahead – Waste of Mind (1998) [FLAC]\04. Someday.wav

Pre-gap length 0:00:07.86

Peak level 100.0 %
Track quality 100.0 %
Test CRC AB2D1B25
Copy CRC AB2D1B25
Accurately ripped (confidence 2) [6B54EA7C]
Copy OK

Track 5

Filename D:\Seeding for what.cd\Zebrahead – Waste of Mind (1998) [FLAC]\05. Waste of Mind.wav

Pre-gap length 0:00:07.86

Peak level 100.0 %
Track quality 100.0 %
Test CRC 655A5192
Copy CRC 655A5192
Accurately ripped (confidence 2) [A6D311A8]
Copy OK

Track 6

Filename D:\Seeding for what.cd\Zebrahead – Waste of Mind (1998) [FLAC]\06. Feel This Way.wav

Pre-gap length 0:00:07.86

Peak level 100.0 %
Track quality 100.0 %
Test CRC 535F9B32
Copy CRC 535F9B32
Accurately ripped (confidence 2) [24B8C5D3]
Copy OK

Track 7

Filename D:\Seeding for what.cd\Zebrahead – Waste of Mind (1998) [FLAC]\07. Walk Away.wav

Pre-gap length 0:00:07.86

Peak level 100.0 %
Track quality 100.0 %
Test CRC FDDC3A18
Copy CRC FDDC3A18
Accurately ripped (confidence 2) [CA90EB73]
Copy OK

Track 8

Filename D:\Seeding for what.cd\Zebrahead – Waste of Mind (1998) [FLAC]\08. Big Shot.wav

Pre-gap length 0:00:07.86

Peak level 100.0 %
Track quality 100.0 %
Test CRC CE4B5724
Copy CRC CE4B5724
Accurately ripped (confidence 2) [E8159421]
Copy OK

Track 9

Filename D:\Seeding for what.cd\Zebrahead – Waste of Mind (1998) [FLAC]\09. Swing.wav

Pre-gap length 0:00:07.86

Peak level 100.0 %
Track quality 100.0 %
Test CRC 7F04F9B5
Copy CRC 7F04F9B5
Accurately ripped (confidence 2) [1FF79E23]
Copy OK

Track 10

Filename D:\Seeding for what.cd\Zebrahead – Waste of Mind (1998) [FLAC]\10. Jag Off.wav

Pre-gap length 0:00:07.86

Peak level 100.0 %
Track quality 100.0 %
Test CRC 36EEC9CE
Copy CRC 36EEC9CE
Accurately ripped (confidence 2) [DCDE82D7]
Copy OK

Track 11

Filename D:\Seeding for what.cd\Zebrahead – Waste of Mind (1998) [FLAC]\11. Time.wav

Pre-gap length 0:00:07.86

Peak level 100.0 %
Track quality 100.0 %
Test CRC 05C5F1F1
Copy CRC 05C5F1F1
Accurately ripped (confidence 2) [8135D119]
Copy OK

Track 12

Filename D:\Seeding for what.cd\Zebrahead – Waste of Mind (1998) [FLAC]\12. Move On.wav

Pre-gap length 0:00:07.86

Peak level 100.0 %
Track quality 100.0 %
Test CRC BC255A17
Copy CRC BC255A17
Accurately ripped (confidence 2) [292C27EA]
Copy OK

Track 13

Filename D:\Seeding for what.cd\Zebrahead – Waste of Mind (1998) [FLAC]\13. Fly Daze.wav

Pre-gap length 0:00:07.86

Peak level 100.0 %
Track quality 100.0 %
Test CRC D1592DB7
Copy CRC D1592DB7
Accurately ripped (confidence 2) [8E49AC22]
Copy OK

Track 14

Filename D:\Seeding for what.cd\Zebrahead – Waste of Mind (1998) [FLAC]\14. Bootylicious Vinyl.wav

Pre-gap length 0:00:07.86

Peak level 100.0 %
Track quality 100.0 %
Test CRC 68F0EF8A
Copy CRC 68F0EF8A
Accurately ripped (confidence 2) [57C61F59]
Copy OK

All tracks accurately ripped

No errors occurred

End of status report

REM GENRE “Punk Rock”
REM DATE 1998
REM DISCID CA0B4F0E
REM COMMENT “ExactAudioCopy v0.99pb4”
PERFORMER “Zebrahead”
TITLE “Waste of Mind”
FILE “Zebrahead – Waste of Mind (1998) [FLAC]\01. Check.wav” WAVE
TRACK 01 AUDIO
TITLE “Check”
PERFORMER “Zebrahead”
ISRC USSM19802927
FLAGS DCP
INDEX 01 00:00:00
TRACK 02 AUDIO
TITLE “Get Back”
PERFORMER “Zebrahead”
ISRC USSM19802875
FLAGS DCP
INDEX 00 02:17:65
FILE “Zebrahead – Waste of Mind (1998) [FLAC]\02. Get Back.wav” WAVE
INDEX 01 00:00:00
TRACK 03 AUDIO
TITLE “The Real Me”
PERFORMER “Zebrahead”
ISRC USSM19802875
FLAGS DCP
INDEX 00 03:24:07
FILE “Zebrahead – Waste of Mind (1998) [FLAC]\03. The Real Me.wav” WAVE
INDEX 01 00:00:00
TRACK 04 AUDIO
TITLE “Someday”
PERFORMER “Zebrahead”
ISRC USSM19802877
FLAGS DCP
INDEX 00 03:50:15
FILE “Zebrahead – Waste of Mind (1998) [FLAC]\04. Someday.wav” WAVE
INDEX 01 00:00:00
TRACK 05 AUDIO
TITLE “Waste of Mind”
PERFORMER “Zebrahead”
ISRC USSM19802878
FLAGS DCP
INDEX 00 02:54:28
FILE “Zebrahead – Waste of Mind (1998) [FLAC]\05. Waste of Mind.wav” WAVE
INDEX 01 00:00:00
TRACK 06 AUDIO
TITLE “Feel This Way”
PERFORMER “Zebrahead”
ISRC USSM19802879
FLAGS DCP
INDEX 00 03:24:60
FILE “Zebrahead – Waste of Mind (1998) [FLAC]\06. Feel This Way.wav” WAVE
INDEX 01 00:00:00
TRACK 07 AUDIO
TITLE “Walk Away”
PERFORMER “Zebrahead”
ISRC USSM19802880
FLAGS DCP
INDEX 00 03:37:00
FILE “Zebrahead – Waste of Mind (1998) [FLAC]\07. Walk Away.wav” WAVE
INDEX 01 00:00:00
TRACK 08 AUDIO
TITLE “Big Shot”
PERFORMER “Zebrahead”
ISRC USSM19802881
FLAGS DCP
INDEX 00 03:15:07
FILE “Zebrahead – Waste of Mind (1998) [FLAC]\08. Big Shot.wav” WAVE
INDEX 01 00:00:00
TRACK 09 AUDIO
TITLE “Swing”
PERFORMER “Zebrahead”
ISRC USSM19802928
FLAGS DCP
INDEX 00 02:52:13
FILE “Zebrahead – Waste of Mind (1998) [FLAC]\09. Swing.wav” WAVE
INDEX 01 00:00:00
TRACK 10 AUDIO
TITLE “Jag Off”
PERFORMER “Zebrahead”
ISRC USSM19802882
FLAGS DCP
INDEX 00 02:43:40
FILE “Zebrahead – Waste of Mind (1998) [FLAC]\10. Jag Off.wav” WAVE
INDEX 01 00:00:00
TRACK 11 AUDIO
TITLE “Time”
PERFORMER “Zebrahead”
ISRC USSM19802883
FLAGS DCP
INDEX 00 03:17:70
FILE “Zebrahead – Waste of Mind (1998) [FLAC]\11. Time.wav” WAVE
INDEX 01 00:00:00
TRACK 12 AUDIO
TITLE “Move On”
PERFORMER “Zebrahead”
ISRC USSM19802884
FLAGS DCP
INDEX 00 03:03:42
FILE “Zebrahead – Waste of Mind (1998) [FLAC]\12. Move On.wav” WAVE
INDEX 01 00:00:00
TRACK 13 AUDIO
TITLE “Fly Daze”
PERFORMER “Zebrahead”
ISRC USSM19802885
FLAGS DCP
INDEX 00 04:00:43
FILE “Zebrahead – Waste of Mind (1998) [FLAC]\13. Fly Daze.wav” WAVE
INDEX 01 00:00:00
TRACK 14 AUDIO
TITLE “Bootylicious Vinyl”
PERFORMER “Zebrahead”
ISRC USSM19802929
FLAGS DCP
INDEX 00 04:25:45
FILE “Zebrahead – Waste of Mind (1998) [FLAC]\14. Bootylicious Vinyl.wav” WAVE
INDEX 01 00:00:00


Leave a Reply

Your email address will not be published. Required fields are marked *

Enter the text from the image below
 

This site uses Akismet to reduce spam. Learn how your comment data is processed.