Zebrahead – Playmate Of The Year (Japanese Edition)




No Cover available

Artist: Zebrahead
Year: 2000
Genre: Punk
Notes: Discogs
Add. Notes: Japanese Edition
Watch Songs on: YouTube
Cover incl.: Yes
Encoder: FLAC
Bitrate: ~900 kBit/s (44.1 kHz/16 Bit/s)
Log & Cue incl.: Yes/Yes
Size: 382,3 MB
Password: “slam” (without ” “)


All Downloads/Hosters are compatible

Download 1
KatFile.com
Turbobit.net
Rapidgator.net
FileFactory.com
Download 2
KatFile.com
Turbobit.net
Rapidgator.net
FileFactory.com

Tracklist:

1 I Am 3:01
2 Playmate Of The Year 2:58
3 Now Or Never 3:00
4 Wasted 3:28
5 I'm Money 3:52
6 Go 3:23
7 What's Goin' On? 4:40
8 Subtract You 2:58
9 The Hell That Is My Life 3:33
10 E Generation 2:44
11 Livin' Libido Loco 4:45
12 In My Room 4:19
13 All I Need 
14 Deck The Halls ( I Hate Christmas ) 
15 (Hidden Track) 0:04

EAC-Log, CUE-Sheed & NFO:

Click to open spoiler
Exact Audio Copy V1.0 beta 3 from 29. August 2011

EAC extraction logfile from 4. February 2012, 14:22

Zebrahead / Playmate Of The Year (Japanese Import)

Used drive : PLEXTOR DVDR PX-L890SA Adapter: 1 ID: 0

Read mode : Secure
Utilize accurate stream : Yes
Defeat audio cache : Yes
Make use of C2 pointers : No

Read offset correction : 6
Overread into Lead-In and Lead-Out : No
Fill up missing offset samples with silence : Yes
Delete leading and trailing silent blocks : No
Null samples used in CRC calculations : Yes
Used interface : Native Win32 interface for Win NT & 2000
Gap handling : Appended to previous track

Used output format : User Defined Encoder
Selected bitrate : 1024 kBit/s
Quality : High
Add ID3 tag : No
Command line compressor : C:\Program Files (x86)\Exact Audio Copy\Flac\flac.exe
Additional command line options : -8 -V -T “ARTIST=%artist%” -T “TITLE=%title%” -T “ALBUM=%albumtitle%” -T “DATE=%year%” -T “TRACKNUMBER=%tracknr%” -T “GENRE=%genre%” -T “PERFORMER=%albuminterpret%” -T “COMPOSER=%composer%” %haslyrics%–tag-from-file=LYRICS=”%lyricsfile%”%haslyrics% -T “ALBUMARTIST=%albumartist%” -T “DISCNUMBER=%cdnumber%” -T “TOTALDISCS=%totalcds%” -T “TOTALTRACKS=%numtracks%” -T “COMMENT=%comment%” %source% -o %dest%

TOC of the extracted CD

Track | Start | Length | Start sector | End sector
———————————————————
1 | 0:00.00 | 3:01.62 | 0 | 13636
2 | 3:01.62 | 2:57.55 | 13637 | 26966
3 | 5:59.42 | 3:00.35 | 26967 | 40501
4 | 9:00.02 | 3:54.10 | 40502 | 58061
5 | 12:54.12 | 3:53.25 | 58062 | 75561
6 | 16:47.37 | 3:23.17 | 75562 | 90803
7 | 20:10.54 | 4:01.06 | 90804 | 108884
8 | 24:11.60 | 2:58.52 | 108885 | 122286
9 | 27:10.37 | 4:00.18 | 122287 | 140304
10 | 31:10.55 | 2:44.15 | 140305 | 152619
11 | 33:54.70 | 4:46.67 | 152620 | 174136
12 | 38:41.62 | 4:39.03 | 174137 | 195064
13 | 43:20.65 | 3:08.32 | 195065 | 209196
14 | 46:29.22 | 10:15.12 | 209197 | 255333
15 | 56:44.34 | 0:04.63 | 255334 | 255696

Track 1

Filename E:\My Music\Zebrahead – 2000 – Playmate Of The Year (Japanese Import) [FLAC]\01 – I Am.wav

Pre-gap length 0:00:02.00

Peak level 100.0 %
Extraction speed 3.2 X
Track quality 100.0 %
Test CRC 0A0A0EA0
Copy CRC 0A0A0EA0
Accurately ripped (confidence 2) [B1EB8840] (AR v1)
Copy OK

Track 2

Filename E:\My Music\Zebrahead – 2000 – Playmate Of The Year (Japanese Import) [FLAC]\02 – Playmate Of The Year.wav

Peak level 100.0 %
Extraction speed 3.5 X
Track quality 100.0 %
Test CRC F7037609
Copy CRC F7037609
Accurately ripped (confidence 2) [FA4F6118] (AR v1)
Copy OK

Track 3

Filename E:\My Music\Zebrahead – 2000 – Playmate Of The Year (Japanese Import) [FLAC]\03 – Now Or Never.wav

Peak level 100.0 %
Extraction speed 3.7 X
Track quality 100.0 %
Test CRC 0A782168
Copy CRC 0A782168
Accurately ripped (confidence 2) [590E9388] (AR v1)
Copy OK

Track 4

Filename E:\My Music\Zebrahead – 2000 – Playmate Of The Year (Japanese Import) [FLAC]\04 – Wasted.wav

Peak level 100.0 %
Extraction speed 4.2 X
Track quality 100.0 %
Test CRC 2E22D22C
Copy CRC 2E22D22C
Accurately ripped (confidence 2) [3760A35A] (AR v1)
Copy OK

Track 5

Filename E:\My Music\Zebrahead – 2000 – Playmate Of The Year (Japanese Import) [FLAC]\05 – I’m Money.wav

Pre-gap length 0:00:25.20

Peak level 100.0 %
Extraction speed 4.5 X
Track quality 100.0 %
Test CRC 3AB0A55D
Copy CRC 3AB0A55D
Accurately ripped (confidence 2) [0D5791E6] (AR v1)
Copy OK

Track 6

Filename E:\My Music\Zebrahead – 2000 – Playmate Of The Year (Japanese Import) [FLAC]\06 – Go.wav

Pre-gap length 0:00:00.86

Peak level 100.0 %
Extraction speed 4.7 X
Track quality 100.0 %
Test CRC C6CE6310
Copy CRC C6CE6310
Accurately ripped (confidence 2) [0FD8DACA] (AR v1)
Copy OK

Track 7

Filename E:\My Music\Zebrahead – 2000 – Playmate Of The Year (Japanese Import) [FLAC]\07 – What’s Goin’ On.wav

Peak level 100.0 %
Extraction speed 5.0 X
Track quality 100.0 %
Test CRC C9BC340B
Copy CRC C9BC340B
Accurately ripped (confidence 2) [5EB182BC] (AR v1)
Copy OK

Track 8

Filename E:\My Music\Zebrahead – 2000 – Playmate Of The Year (Japanese Import) [FLAC]\08 – Subtract You.wav

Peak level 100.0 %
Extraction speed 5.0 X
Track quality 100.0 %
Test CRC 01FF85C9
Copy CRC 01FF85C9
Accurately ripped (confidence 2) [8A9470EA] (AR v1)
Copy OK

Track 9

Filename E:\My Music\Zebrahead – 2000 – Playmate Of The Year (Japanese Import) [FLAC]\09 – The Hell That Is My Life.wav

Peak level 100.0 %
Extraction speed 5.4 X
Track quality 100.0 %
Test CRC 095CF39E
Copy CRC 095CF39E
Accurately ripped (confidence 2) [435D6EAA] (AR v1)
Copy OK

Track 10

Filename E:\My Music\Zebrahead – 2000 – Playmate Of The Year (Japanese Import) [FLAC]\10 – E Generation.wav

Pre-gap length 0:00:26.57

Peak level 100.0 %
Extraction speed 5.3 X
Track quality 100.0 %
Test CRC 96DC78E8
Copy CRC 96DC78E8
Accurately ripped (confidence 2) [FF4A6F57] (AR v1)
Copy OK

Track 11

Filename E:\My Music\Zebrahead – 2000 – Playmate Of The Year (Japanese Import) [FLAC]\11 – Livin’ Libido Loco.wav

Peak level 100.0 %
Extraction speed 5.9 X
Track quality 100.0 %
Test CRC 42AF4C75
Copy CRC 42AF4C75
Accurately ripped (confidence 2) [2650CAE6] (AR v1)
Copy OK

Track 12

Filename E:\My Music\Zebrahead – 2000 – Playmate Of The Year (Japanese Import) [FLAC]\12 – In My Room.wav

Pre-gap length 0:00:01.13

Peak level 98.8 %
Extraction speed 6.2 X
Track quality 100.0 %
Test CRC C649294E
Copy CRC C649294E
Accurately ripped (confidence 2) [148340ED] (AR v1)
Copy OK

Track 13

Filename E:\My Music\Zebrahead – 2000 – Playmate Of The Year (Japanese Import) [FLAC]\13 – All I Need (Bonus Track).wav

Peak level 100.0 %
Extraction speed 6.0 X
Track quality 100.0 %
Test CRC 1C7628BE
Copy CRC 1C7628BE
Accurately ripped (confidence 2) [8E0604A6] (AR v1)
Copy OK

Track 14

Filename E:\My Music\Zebrahead – 2000 – Playmate Of The Year (Japanese Import) [FLAC]\14 – Deck The Halls (I Hate Christmas) (Bonus Track).wav

Peak level 90.5 %
Extraction speed 6.5 X
Track quality 99.9 %
Test CRC 93E69B2C
Copy CRC 93E69B2C
Accurately ripped (confidence 2) [74474973] (AR v1)
Copy OK

Track 15

Filename E:\My Music\Zebrahead – 2000 – Playmate Of The Year (Japanese Import) [FLAC]\15 – Untitled (Hidden Track).wav

Pre-gap length 0:06:54.16

Peak level 0.0 %
Extraction speed 0.7 X
Track quality 100.0 %
Test CRC 536DE8BC
Copy CRC 536DE8BC
Track not present in AccurateRip database
Copy OK

14 track(s) accurately ripped
1 track(s) not present in the AccurateRip database

Some tracks could not be verified as accurate

No errors occurred

End of status report

—- CUETools DB Plugin V2.1.3

[CTDB TOCID: QdRQBYYF3VEcmmc8ExP1z.r0GkE-] disk not present in database, Submit result: QdRQBYYF3VEcmmc8ExP1z.r0GkE- has been uploaded

==== Log checksum F08F54862C19B0A4082C5C808D9D90881EBD3DC278C23BFB55D73BDF4EA7A778 ====

REM GENRE “Pop Punk”
REM DATE 2000
REM DISCID B10D510F
REM COMMENT “ExactAudioCopy v1.0b3”
PERFORMER “Zebrahead”
TITLE “Playmate Of The Year (Japanese Import)”
FILE “01 – I Am.wav” WAVE
TRACK 01 AUDIO
TITLE “I Am”
PERFORMER “Zebrahead”
ISRC USSM10011539
INDEX 01 00:00:00
FILE “02 – Playmate Of The Year.wav” WAVE
TRACK 02 AUDIO
TITLE “Playmate Of The Year”
PERFORMER “Zebrahead”
ISRC USSM10011322
INDEX 01 00:00:00
FILE “03 – Now Or Never.wav” WAVE
TRACK 03 AUDIO
TITLE “Now Or Never”
PERFORMER “Zebrahead”
ISRC USSM10011540
INDEX 01 00:00:00
FILE “04 – Wasted.wav” WAVE
TRACK 04 AUDIO
TITLE “Wasted”
PERFORMER “Zebrahead”
ISRC USSM10011541
INDEX 01 00:00:00
TRACK 05 AUDIO
TITLE “I’m Money”
PERFORMER “Zebrahead”
ISRC USSM10011543
INDEX 00 03:28:70
FILE “05 – I’m Money.wav” WAVE
INDEX 01 00:00:00
TRACK 06 AUDIO
TITLE “Go”
PERFORMER “Zebrahead”
ISRC USSM10011544
INDEX 00 03:52:35
FILE “06 – Go.wav” WAVE
INDEX 01 00:00:00
FILE “07 – What’s Goin’ On.wav” WAVE
TRACK 07 AUDIO
TITLE “What’s Goin’ On”
PERFORMER “Zebrahead”
ISRC USSM10011545
INDEX 01 00:00:00
FILE “08 – Subtract You.wav” WAVE
TRACK 08 AUDIO
TITLE “Subtract You”
PERFORMER “Zebrahead”
ISRC USSM10011546
INDEX 01 00:00:00
FILE “09 – The Hell That Is My Life.wav” WAVE
TRACK 09 AUDIO
TITLE “The Hell That Is My Life”
PERFORMER “Zebrahead”
ISRC USSM10011547
INDEX 01 00:00:00
TRACK 10 AUDIO
TITLE “E Generation”
PERFORMER “Zebrahead”
ISRC USSM10011549
INDEX 00 03:33:50
FILE “10 – E Generation.wav” WAVE
INDEX 01 00:00:00
FILE “11 – Livin’ Libido Loco.wav” WAVE
TRACK 11 AUDIO
TITLE “Livin’ Libido Loco”
PERFORMER “Zebrahead”
ISRC USSM10011550
INDEX 01 00:00:00
TRACK 12 AUDIO
TITLE “In My Room”
PERFORMER “Zebrahead”
ISRC USSM10011551
INDEX 00 04:45:57
FILE “12 – In My Room.wav” WAVE
INDEX 01 00:00:00
FILE “13 – All I Need (Bonus Track).wav” WAVE
TRACK 13 AUDIO
TITLE “All I Need (Bonus Track)”
PERFORMER “Zebrahead”
ISRC USSM10011554
INDEX 01 00:00:00
FILE “14 – Deck The Halls (I Hate Christmas) (Bonus Track).wav” WAVE
TRACK 14 AUDIO
TITLE “Deck The Halls (I Hate Christmas) (Bonus Track)”
PERFORMER “Zebrahead”
ISRC USSM10011555
INDEX 01 00:00:00
TRACK 15 AUDIO
TITLE “Untitled (Hidden Track)”
PERFORMER “Zebrahead”
INDEX 00 03:21:00
FILE “15 – Untitled (Hidden Track).wav” WAVE
INDEX 01 00:00:00


Leave a Reply

Your email address will not be published. Required fields are marked *

This site uses Akismet to reduce spam. Learn how your comment data is processed.