Zebrahead – Phoenix




No Cover available

Artist: Zebrahead
Year: 2008
Genre: Punk
Notes: Discogs
Add. Notes:
Watch Songs on: YouTube
Cover incl.: Yes
Encoder: FLAC
Bitrate: ~1100 kBit/s (44.1 kHz/16 Bit/s)
Log & Cue incl.: Yes/Yes
Size: 412,9 MB
Password: “slam” (without ” “)


All Downloads/Hosters are compatible

Download 1
KatFile.com
Turbobit.net
Rapidgator.net
FileFactory.com
Download 2
KatFile.com
Turbobit.net
Rapidgator.net
FileFactory.com

Tracklist:

1 HMP 3:01
2 Hell Yeah! 3:37
3 Just The Tip 3:16
4 Mental Health 3:14
5 The Juggernauts 3:58
6 Death By Disco 3:23
7 Be Careful What You Wish For 3:11
8 Morse Code For Suckers 3:50
9 Ignite 3:26
10 Mike Dexter Is A God, Mike  3:37
11 The Junkie And The Halo 3:28
12 Brixton 3:07
13 Hit The Ground 3:21
14 Two Wrongs Don't Make A Right, But Three Rights 
Make A Left 3:32
15 All For None And None For All 3:17
16 Sorry, But Your Friends Are Hot 3:50

EAC-Log, CUE-Sheed & NFO:

Click to open spoiler
Exact Audio Copy V0.99 prebeta 5 from 4. May 2009

EAC extraction logfile from 2. July 2009, 8:42

Zebrahead / Phoenix

Used drive : HL-DT-STDVDRAM GSA-H12N Adapter: 3 ID: 1

Read mode : Secure
Utilize accurate stream : Yes
Defeat audio cache : Yes
Make use of C2 pointers : No

Read offset correction : 667
Overread into Lead-In and Lead-Out : No
Fill up missing offset samples with silence : Yes
Delete leading and trailing silent blocks : No
Null samples used in CRC calculations : Yes
Used interface : Native Win32 interface for Win NT & 2000
Gap handling : Appended to previous track

Used output format : User Defined Encoder
Selected bitrate : 192 kBit/s
Quality : High
Add ID3 tag : No
Command line compressor : C:\Program Files\Exact Audio Copy\Flac\flac.exe
Additional command line options : -8 -A tukey(0.25) -A gauss(0.1875) -b 4096 -V -T “artist=%a” -T “title=%t” -T “album=%g” -T “date=%y” -T “tracknumber=%n” -T “genre=%m” %s –sector-align

TOC of the extracted CD

Track | Start | Length | Start sector | End sector
———————————————————
1 | 0:00.00 | 3:01.30 | 0 | 13604
2 | 3:01.30 | 3:36.60 | 13605 | 29864
3 | 6:38.15 | 3:16.34 | 29865 | 44598
4 | 9:54.49 | 3:13.60 | 44599 | 59133
5 | 13:08.34 | 3:58.25 | 59134 | 77008
6 | 17:06.59 | 3:23.13 | 77009 | 92246
7 | 20:29.72 | 3:11.37 | 92247 | 106608
8 | 23:41.34 | 3:49.71 | 106609 | 123854
9 | 27:31.30 | 3:26.36 | 123855 | 139340
10 | 30:57.66 | 3:36.56 | 139341 | 155596
11 | 34:34.47 | 3:28.21 | 155597 | 171217
12 | 38:02.68 | 3:07.28 | 171218 | 185270
13 | 41:10.21 | 3:20.67 | 185271 | 200337
14 | 44:31.13 | 3:32.21 | 200338 | 216258
15 | 48:03.34 | 3:16.65 | 216259 | 231023
16 | 51:20.24 | 3:50.16 | 231024 | 248289

Track 1

Filename H:\FLAC-MP3\zh-p-flac\01. HMP.wav

Pre-gap length 0:00:02.00

Peak level 98.9 %
Track quality 100.0 %
Test CRC 028C1AD9
Copy CRC 028C1AD9
Cannot be verified as accurate (confidence 3) [4F913D34], AccurateRip returned [981636C0]
Copy OK

Track 2

Filename H:\FLAC-MP3\zh-p-flac\02. Hell Yeah!.wav

Peak level 99.0 %
Track quality 99.9 %
Test CRC E2519D9C
Copy CRC E2519D9C
Cannot be verified as accurate (confidence 3) [84EF9009], AccurateRip returned [3275C0AA]
Copy OK

Track 3

Filename H:\FLAC-MP3\zh-p-flac\03. Just The Tip.wav

Peak level 98.8 %
Track quality 100.0 %
Test CRC 353399EE
Copy CRC 353399EE
Cannot be verified as accurate (confidence 3) [E6EA0F7C], AccurateRip returned [9096FB39]
Copy OK

Track 4

Filename H:\FLAC-MP3\zh-p-flac\04. Mental Health.wav

Peak level 98.8 %
Track quality 100.0 %
Test CRC 6CD8091E
Copy CRC 6CD8091E
Cannot be verified as accurate (confidence 3) [E09EB00C], AccurateRip returned [785EDD46]
Copy OK

Track 5

Filename H:\FLAC-MP3\zh-p-flac\05. The Juggernauts.wav

Peak level 98.8 %
Track quality 100.0 %
Test CRC C02403A2
Copy CRC C02403A2
Cannot be verified as accurate (confidence 3) [6CDFA29D], AccurateRip returned [CEBBFA1F]
Copy OK

Track 6

Filename H:\FLAC-MP3\zh-p-flac\06. Death By Disco.wav

Peak level 98.8 %
Track quality 100.0 %
Test CRC E0CF145C
Copy CRC E0CF145C
Cannot be verified as accurate (confidence 4) [4E37449E], AccurateRip returned [332931D5]
Copy OK

Track 7

Filename H:\FLAC-MP3\zh-p-flac\07. Be Careful What You Wish For.wav

Peak level 98.8 %
Track quality 100.0 %
Test CRC 5CB9DA09
Copy CRC 5CB9DA09
Cannot be verified as accurate (confidence 3) [7AFC1971], AccurateRip returned [3C13AA90]
Copy OK

Track 8

Filename H:\FLAC-MP3\zh-p-flac\08. Morse Code For Suckers.wav

Peak level 98.8 %
Track quality 100.0 %
Test CRC 6F3615B5
Copy CRC 6F3615B5
Cannot be verified as accurate (confidence 3) [C05C972C], AccurateRip returned [08255DF3]
Copy OK

Track 9

Filename H:\FLAC-MP3\zh-p-flac\09. Ignite.wav

Peak level 98.8 %
Track quality 100.0 %
Test CRC 25333508
Copy CRC 25333508
Cannot be verified as accurate (confidence 3) [856C8885], AccurateRip returned [C23324CE]
Copy OK

Track 10

Filename H:\FLAC-MP3\zh-p-flac\10. Mike Dexter Is A God, Mike Dexter Is A Role Model, Mike Dexter Is An Asshole.wav

Peak level 98.8 %
Track quality 100.0 %
Test CRC 3B805D8A
Copy CRC 3B805D8A
Cannot be verified as accurate (confidence 4) [990C1BCF], AccurateRip returned [EB0D5E90]
Copy OK

Track 11

Filename H:\FLAC-MP3\zh-p-flac\11. The Junkie And The Halo.wav

Peak level 98.8 %
Track quality 100.0 %
Test CRC F7E462E7
Copy CRC F7E462E7
Cannot be verified as accurate (confidence 4) [6FEE4F14], AccurateRip returned [2DFF9AEB]
Copy OK

Track 12

Filename H:\FLAC-MP3\zh-p-flac\12. Brixton.wav

Peak level 98.8 %
Track quality 100.0 %
Test CRC CA849074
Copy CRC CA849074
Cannot be verified as accurate (confidence 4) [F9A38A28], AccurateRip returned [5237D243]
Copy OK

Track 13

Filename H:\FLAC-MP3\zh-p-flac\13. Hit The Ground.wav

Peak level 98.8 %
Track quality 99.9 %
Test CRC 7F67D4D6
Copy CRC 7F67D4D6
Cannot be verified as accurate (confidence 3) [153D6A4C], AccurateRip returned [525BF2D4]
Copy OK

Track 14

Filename H:\FLAC-MP3\zh-p-flac\14. Two Wrongs Don’t Make A Right, But Three Rights Make A Left.wav

Peak level 98.8 %
Track quality 100.0 %
Test CRC 5CC92C57
Copy CRC 5CC92C57
Cannot be verified as accurate (confidence 3) [5B792F54], AccurateRip returned [7C05EA91]
Copy OK

Track 15

Filename H:\FLAC-MP3\zh-p-flac\15. All For None And None For All.wav

Peak level 98.8 %
Track quality 100.0 %
Test CRC C5DDB5A3
Copy CRC C5DDB5A3
Cannot be verified as accurate (confidence 3) [6E3376A3], AccurateRip returned [4B5D7F6F]
Copy OK

Track 16

Filename H:\FLAC-MP3\zh-p-flac\16. Sorry, But Your Friends Are Hot.wav

Peak level 98.8 %
Track quality 100.0 %
Test CRC 06600DCC
Copy CRC 06600DCC
Cannot be verified as accurate (confidence 3) [56AD9FF7], AccurateRip returned [4AC8FBEF]
Copy OK

No tracks could be verified as accurate
You may have a different pressing from the one(s) in the database

No errors occurred

End of status report

REM GENRE “Punk Rock”
REM DATE 2008
REM DISCID DC0CEE10
REM COMMENT “ExactAudioCopy v0.99pb5”
PERFORMER “Zebrahead”
TITLE “Phoenix”
FILE “01. HMP.wav” WAVE
TRACK 01 AUDIO
TITLE “HMP”
PERFORMER “Zebrahead”
INDEX 01 00:00:00
FILE “02. Hell Yeah!.wav” WAVE
TRACK 02 AUDIO
TITLE “Hell Yeah!”
PERFORMER “Zebrahead”
INDEX 01 00:00:00
FILE “03. Just The Tip.wav” WAVE
TRACK 03 AUDIO
TITLE “Just The Tip”
PERFORMER “Zebrahead”
INDEX 01 00:00:00
FILE “04. Mental Health.wav” WAVE
TRACK 04 AUDIO
TITLE “Mental Health”
PERFORMER “Zebrahead”
INDEX 01 00:00:00
FILE “05. The Juggernauts.wav” WAVE
TRACK 05 AUDIO
TITLE “The Juggernauts”
PERFORMER “Zebrahead”
INDEX 01 00:00:00
FILE “06. Death By Disco.wav” WAVE
TRACK 06 AUDIO
TITLE “Death By Disco”
PERFORMER “Zebrahead”
INDEX 01 00:00:00
FILE “07. Be Careful What You Wish For.wav” WAVE
TRACK 07 AUDIO
TITLE “Be Careful What You Wish For”
PERFORMER “Zebrahead”
INDEX 01 00:00:00
FILE “08. Morse Code For Suckers.wav” WAVE
TRACK 08 AUDIO
TITLE “Morse Code For Suckers”
PERFORMER “Zebrahead”
INDEX 01 00:00:00
FILE “09. Ignite.wav” WAVE
TRACK 09 AUDIO
TITLE “Ignite”
PERFORMER “Zebrahead”
INDEX 01 00:00:00
FILE “10. Mike Dexter Is A God, Mike Dexter Is A Role Model, Mike Dexter Is An Asshole.wav” WAVE
TRACK 10 AUDIO
TITLE “Mike Dexter Is A God, Mike Dexter Is A Role Model, Mike Dexter Is An Asshole”
PERFORMER “Zebrahead”
INDEX 01 00:00:00
FILE “11. The Junkie And The Halo.wav” WAVE
TRACK 11 AUDIO
TITLE “The Junkie And The Halo”
PERFORMER “Zebrahead”
INDEX 01 00:00:00
FILE “12. Brixton.wav” WAVE
TRACK 12 AUDIO
TITLE “Brixton”
PERFORMER “Zebrahead”
INDEX 01 00:00:00
FILE “13. Hit The Ground.wav” WAVE
TRACK 13 AUDIO
TITLE “Hit The Ground”
PERFORMER “Zebrahead”
INDEX 01 00:00:00
FILE “14. Two Wrongs Don’t Make A Right, But Three Rights Make A Left.wav” WAVE
TRACK 14 AUDIO
TITLE “Two Wrongs Don’t Make A Right, But Three Rights Make A Left”
PERFORMER “Zebrahead”
INDEX 01 00:00:00
FILE “15. All For None And None For All.wav” WAVE
TRACK 15 AUDIO
TITLE “All For None And None For All”
PERFORMER “Zebrahead”
INDEX 01 00:00:00
FILE “16. Sorry, But Your Friends Are Hot.wav” WAVE
TRACK 16 AUDIO
TITLE “Sorry, But Your Friends Are Hot”
PERFORMER “Zebrahead”
INDEX 01 00:00:00


Leave a Reply

Your email address will not be published. Required fields are marked *

This site uses Akismet to reduce spam. Learn how your comment data is processed.