Zebrahead – Phoenix (Special Edition)




No Cover available

Artist: Zebrahead
Year: 2008
Genre: Punk
Notes: Discogs
Add. Notes: Special Edition
Watch Songs on: YouTube
Cover incl.: Yes
Encoder: FLAC
Bitrate: ~1000 kBit/s (44.1 kHz/16 Bit/s)
Log & Cue incl.: Yes/Yes
Size: 464,8 MB
Password: “slam” (without ” “)


All Downloads/Hosters are compatible

Download 1
KatFile.com
Turbobit.net
Rapidgator.net
FileFactory.com
Download 2
KatFile.com
Turbobit.net
Rapidgator.net
FileFactory.com

Tracklist:

1 HMP 3:01
2 Hell Yeah! 3:37
3 Just The Tip 3:16
4 Mental Health 3:14
5 The Juggernauts 3:58
6 Death By Disco 3:23
7 Be Careful What You Wish For 3:11
8 Morse Code For Suckers 3:50
9 Ignite 3:26
10 Mike Dexter Is A God, Mike Dexter Is A Role Model,  
3:37
11 The Junkie And The Halo 3:28
12 Brixton 3:07
13 Hit The Ground 3:21
14 Two Wrongs Don't Make A Right, But Three Rights 
Make A Left 3:32
15 All For None And None For All 3:17
16 Sorry, But Your Friends Are Hot 3:49

Bonus Tracks:
17 The Art Of Breaking Up 3:19
18 We're Not A Cover Band, We're A Tribute Band 3:48

EAC-Log, CUE-Sheed & NFO:

Click to open spoiler
X Lossless Decoder version 20100711 (120.5)

XLD extraction logfile from 2011-01-22 16:03:10 -0800

Zebrahead / Phoenix [Bonus Tracks]

Used drive : MATSHITA DVD-R UJ-867 (revision HA13)

Use cdparanoia mode : YES (CDParanoia III 10.2 engine)
Disable audio cache : OK for the drive with cache less than 2750KB
Make use of C2 pointers : NO
Read offset correction : 102
Max retry count : 100
Gap status : Analyzed, Appended

TOC of the extracted CD
Track | Start | Length | Start sector | End sector
———————————————————
1 | 00:00:00 | 03:01:48 | 0 | 13622
2 | 03:01:48 | 03:37:48 | 13623 | 29945
3 | 06:39:21 | 03:16:48 | 29946 | 44693
4 | 09:55:69 | 03:13:48 | 44694 | 59216
5 | 13:09:42 | 03:59:48 | 59217 | 77189
6 | 17:09:15 | 03:23:48 | 77190 | 92462
7 | 20:32:63 | 03:21:48 | 92463 | 107585
8 | 23:54:36 | 03:50:48 | 107586 | 124883
9 | 27:45:09 | 03:27:48 | 124884 | 140456
10 | 31:12:57 | 03:37:48 | 140457 | 156779
11 | 34:50:30 | 03:29:48 | 156780 | 172502
12 | 38:20:03 | 03:07:48 | 172503 | 186575
13 | 41:27:51 | 03:21:48 | 186576 | 201698
14 | 44:49:24 | 03:32:48 | 201699 | 217646
15 | 48:21:72 | 03:17:48 | 217647 | 232469
16 | 51:39:45 | 03:51:48 | 232470 | 249842
17 | 55:31:18 | 03:08:48 | 249843 | 263990
18 | 58:39:66 | 03:23:48 | 263991 | 279263

All Tracks
Album gain : -12.35 dB
Peak : 1.000000

Track 01
Filename : /Users/flaw5001/Desktop/Downloads/Ipod Video/01. HMP – Zebrahead – Phoenix [Bonus Tracks] – ”FLAW5001 Encodes”.flac

Pre-gap length : 00:02:00

Track gain : -12.53 dB
Peak : 1.000000
CRC32 hash (test run) : 167DCCE0
CRC32 hash : 167DCCE0
CRC32 hash (skip zero) : 85758BDE
AccurateRip signature : 38240F73
->Track not present in AccurateRip database.
Statistics
Read error : 0
Skipped (treated as error) : 0
Edge jitter error (maybe fixed) : 0
Atom jitter error (maybe fixed) : 0
Drift error (maybe fixed) : 0
Dropped bytes error (maybe fixed) : 0
Duplicated bytes error (maybe fixed) : 0
Inconsistency in error sectors : 0

Track 02
Filename : /Users/flaw5001/Desktop/Downloads/Ipod Video/02. Hell Yeah! – Zebrahead – Phoenix [Bonus Tracks] – ”FLAW5001 Encodes”.flac

Track gain : -12.35 dB
Peak : 1.000000
CRC32 hash (test run) : 6DAA94B3
CRC32 hash : 6DAA94B3
CRC32 hash (skip zero) : 855EB0A9
AccurateRip signature : 8E9FA913
->Track not present in AccurateRip database.
Statistics
Read error : 0
Skipped (treated as error) : 0
Edge jitter error (maybe fixed) : 0
Atom jitter error (maybe fixed) : 0
Drift error (maybe fixed) : 0
Dropped bytes error (maybe fixed) : 0
Duplicated bytes error (maybe fixed) : 0
Inconsistency in error sectors : 0

Track 03
Filename : /Users/flaw5001/Desktop/Downloads/Ipod Video/03. Just The Tip – Zebrahead – Phoenix [Bonus Tracks] – ”FLAW5001 Encodes”.flac

Track gain : -12.83 dB
Peak : 1.000000
CRC32 hash (test run) : 562EADE7
CRC32 hash : 562EADE7
CRC32 hash (skip zero) : 4AF68F62
AccurateRip signature : 5F27EEB0
->Track not present in AccurateRip database.
Statistics
Read error : 0
Skipped (treated as error) : 0
Edge jitter error (maybe fixed) : 1
Atom jitter error (maybe fixed) : 1
Drift error (maybe fixed) : 0
Dropped bytes error (maybe fixed) : 1
Duplicated bytes error (maybe fixed) : 1
Inconsistency in error sectors : 0

Track 04
Filename : /Users/flaw5001/Desktop/Downloads/Ipod Video/04. Mental Health – Zebrahead – Phoenix [Bonus Tracks] – ”FLAW5001 Encodes”.flac

Track gain : -12.25 dB
Peak : 1.000000
CRC32 hash (test run) : 55C7F545
CRC32 hash : 55C7F545
CRC32 hash (skip zero) : 72C33BD2
AccurateRip signature : C186E393
->Track not present in AccurateRip database.
Statistics
Read error : 0
Skipped (treated as error) : 0
Edge jitter error (maybe fixed) : 0
Atom jitter error (maybe fixed) : 0
Drift error (maybe fixed) : 0
Dropped bytes error (maybe fixed) : 0
Duplicated bytes error (maybe fixed) : 0
Inconsistency in error sectors : 0

Track 05
Filename : /Users/flaw5001/Desktop/Downloads/Ipod Video/05. The Juggernauts – Zebrahead – Phoenix [Bonus Tracks] – ”FLAW5001 Encodes”.flac

Track gain : -12.14 dB
Peak : 1.000000
CRC32 hash (test run) : F95EEAEB
CRC32 hash : F95EEAEB
CRC32 hash (skip zero) : 1A3EE202
AccurateRip signature : 3FDA7222
->Track not present in AccurateRip database.
Statistics
Read error : 0
Skipped (treated as error) : 0
Edge jitter error (maybe fixed) : 0
Atom jitter error (maybe fixed) : 0
Drift error (maybe fixed) : 0
Dropped bytes error (maybe fixed) : 0
Duplicated bytes error (maybe fixed) : 0
Inconsistency in error sectors : 0

Track 06
Filename : /Users/flaw5001/Desktop/Downloads/Ipod Video/06. Death By Disco – Zebrahead – Phoenix [Bonus Tracks] – ”FLAW5001 Encodes”.flac

Track gain : -11.99 dB
Peak : 1.000000
CRC32 hash (test run) : 73BB0885
CRC32 hash : 73BB0885
CRC32 hash (skip zero) : 06ED5B39
AccurateRip signature : B7E9739D
->Track not present in AccurateRip database.
Statistics
Read error : 0
Skipped (treated as error) : 0
Edge jitter error (maybe fixed) : 0
Atom jitter error (maybe fixed) : 0
Drift error (maybe fixed) : 0
Dropped bytes error (maybe fixed) : 0
Duplicated bytes error (maybe fixed) : 0
Inconsistency in error sectors : 0

Track 07
Filename : /Users/flaw5001/Desktop/Downloads/Ipod Video/07. Be Careful What You Wish For – Zebrahead – Phoenix [Bonus Tracks] – ”FLAW5001 Encodes”.flac

Track gain : -12.15 dB
Peak : 1.000000
CRC32 hash (test run) : 5617D145
CRC32 hash : 5617D145
CRC32 hash (skip zero) : 3D6D82C9
AccurateRip signature : BB74AD0A
->Track not present in AccurateRip database.
Statistics
Read error : 0
Skipped (treated as error) : 0
Edge jitter error (maybe fixed) : 0
Atom jitter error (maybe fixed) : 0
Drift error (maybe fixed) : 0
Dropped bytes error (maybe fixed) : 0
Duplicated bytes error (maybe fixed) : 0
Inconsistency in error sectors : 0

Track 08
Filename : /Users/flaw5001/Desktop/Downloads/Ipod Video/08. Morse Code For Suckers – Zebrahead – Phoenix [Bonus Tracks] – ”FLAW5001 Encodes”.flac

Track gain : -11.89 dB
Peak : 1.000000
CRC32 hash (test run) : EA9EB6E1
CRC32 hash : EA9EB6E1
CRC32 hash (skip zero) : 1D86061E
AccurateRip signature : CFE48234
->Track not present in AccurateRip database.
Statistics
Read error : 0
Skipped (treated as error) : 0
Edge jitter error (maybe fixed) : 0
Atom jitter error (maybe fixed) : 0
Drift error (maybe fixed) : 0
Dropped bytes error (maybe fixed) : 0
Duplicated bytes error (maybe fixed) : 0
Inconsistency in error sectors : 0

Track 09
Filename : /Users/flaw5001/Desktop/Downloads/Ipod Video/09. Ignite – Zebrahead – Phoenix [Bonus Tracks] – ”FLAW5001 Encodes”.flac

Track gain : -13.45 dB
Peak : 1.000000
CRC32 hash (test run) : 73D296AC
CRC32 hash : 73D296AC
CRC32 hash (skip zero) : FD3471D5
AccurateRip signature : 5821884B
->Track not present in AccurateRip database.
Statistics
Read error : 0
Skipped (treated as error) : 0
Edge jitter error (maybe fixed) : 0
Atom jitter error (maybe fixed) : 0
Drift error (maybe fixed) : 0
Dropped bytes error (maybe fixed) : 0
Duplicated bytes error (maybe fixed) : 0
Inconsistency in error sectors : 0

Track 10
Filename : /Users/flaw5001/Desktop/Downloads/Ipod Video/10. Mike Dexter Is A God, Mike Dexter Is A Role Model, Mike Dexter Is An A**Hole – Zebrahead – Phoenix [Bonus Tracks] – ”FLAW5001 Encodes”.flac

Track gain : -11.93 dB
Peak : 1.000000
CRC32 hash (test run) : B3140A95
CRC32 hash : B3140A95
CRC32 hash (skip zero) : A1DAF482
AccurateRip signature : 203CFA51
->Track not present in AccurateRip database.
Statistics
Read error : 0
Skipped (treated as error) : 0
Edge jitter error (maybe fixed) : 1
Atom jitter error (maybe fixed) : 1
Drift error (maybe fixed) : 0
Dropped bytes error (maybe fixed) : 0
Duplicated bytes error (maybe fixed) : 0
Inconsistency in error sectors : 0

Track 11
Filename : /Users/flaw5001/Desktop/Downloads/Ipod Video/11. The Junkie And The Halo – Zebrahead – Phoenix [Bonus Tracks] – ”FLAW5001 Encodes”.flac

Track gain : -12.30 dB
Peak : 1.000000
CRC32 hash (test run) : 2E71FC8F
CRC32 hash : 2E71FC8F
CRC32 hash (skip zero) : 33A000DD
AccurateRip signature : DA951952
->Track not present in AccurateRip database.
Statistics
Read error : 0
Skipped (treated as error) : 0
Edge jitter error (maybe fixed) : 0
Atom jitter error (maybe fixed) : 0
Drift error (maybe fixed) : 0
Dropped bytes error (maybe fixed) : 0
Duplicated bytes error (maybe fixed) : 0
Inconsistency in error sectors : 0

Track 12
Filename : /Users/flaw5001/Desktop/Downloads/Ipod Video/12. Brixton – Zebrahead – Phoenix [Bonus Tracks] – ”FLAW5001 Encodes”.flac

Track gain : -11.99 dB
Peak : 1.000000
CRC32 hash (test run) : C046D193
CRC32 hash : C046D193
CRC32 hash (skip zero) : E4F8B4AB
AccurateRip signature : C4A08219
->Track not present in AccurateRip database.
Statistics
Read error : 0
Skipped (treated as error) : 0
Edge jitter error (maybe fixed) : 0
Atom jitter error (maybe fixed) : 0
Drift error (maybe fixed) : 0
Dropped bytes error (maybe fixed) : 0
Duplicated bytes error (maybe fixed) : 0
Inconsistency in error sectors : 0

Track 13
Filename : /Users/flaw5001/Desktop/Downloads/Ipod Video/13. Hit The Ground – Zebrahead – Phoenix [Bonus Tracks] – ”FLAW5001 Encodes”.flac

Track gain : -12.33 dB
Peak : 1.000000
CRC32 hash (test run) : 6AAB647A
CRC32 hash : 6AAB647A
CRC32 hash (skip zero) : 2A7FC75E
AccurateRip signature : 1FC4BAC1
->Track not present in AccurateRip database.
Statistics
Read error : 0
Skipped (treated as error) : 0
Edge jitter error (maybe fixed) : 0
Atom jitter error (maybe fixed) : 0
Drift error (maybe fixed) : 0
Dropped bytes error (maybe fixed) : 0
Duplicated bytes error (maybe fixed) : 0
Inconsistency in error sectors : 0

Track 14
Filename : /Users/flaw5001/Desktop/Downloads/Ipod Video/14. Two Wrongs Don’t Make A Right, But Three Rights Make A Left – Zebrahead – Phoenix [Bonus Tracks] – ”FLAW5001 Encodes”.flac

Track gain : -11.45 dB
Peak : 1.000000
CRC32 hash (test run) : 6E0D1753
CRC32 hash : 6E0D1753
CRC32 hash (skip zero) : 13B18FC9
AccurateRip signature : 8B8E10CF
->Track not present in AccurateRip database.
Statistics
Read error : 0
Skipped (treated as error) : 0
Edge jitter error (maybe fixed) : 0
Atom jitter error (maybe fixed) : 0
Drift error (maybe fixed) : 0
Dropped bytes error (maybe fixed) : 0
Duplicated bytes error (maybe fixed) : 0
Inconsistency in error sectors : 0

Track 15
Filename : /Users/flaw5001/Desktop/Downloads/Ipod Video/15. All For None And None For All – Zebrahead – Phoenix [Bonus Tracks] – ”FLAW5001 Encodes”.flac

Track gain : -9.83 dB
Peak : 1.000000
CRC32 hash (test run) : 5C091CD7
CRC32 hash : 5C091CD7
CRC32 hash (skip zero) : FBEECCB0
AccurateRip signature : 33892B45
->Track not present in AccurateRip database.
Statistics
Read error : 0
Skipped (treated as error) : 0
Edge jitter error (maybe fixed) : 0
Atom jitter error (maybe fixed) : 0
Drift error (maybe fixed) : 0
Dropped bytes error (maybe fixed) : 0
Duplicated bytes error (maybe fixed) : 0
Inconsistency in error sectors : 0

Track 16
Filename : /Users/flaw5001/Desktop/Downloads/Ipod Video/16. Sorry, But Your Friends Are Hot – Zebrahead – Phoenix [Bonus Tracks] – ”FLAW5001 Encodes”.flac

Track gain : -12.66 dB
Peak : 1.000000
CRC32 hash (test run) : 72FD00DE
CRC32 hash : 72FD00DE
CRC32 hash (skip zero) : 3ED09350
AccurateRip signature : B329096E
->Track not present in AccurateRip database.
Statistics
Read error : 0
Skipped (treated as error) : 0
Edge jitter error (maybe fixed) : 0
Atom jitter error (maybe fixed) : 0
Drift error (maybe fixed) : 0
Dropped bytes error (maybe fixed) : 0
Duplicated bytes error (maybe fixed) : 0
Inconsistency in error sectors : 0

Track 17
Filename : /Users/flaw5001/Desktop/Downloads/Ipod Video/17. Politics – Zebrahead – Phoenix [Bonus Tracks] – ”FLAW5001 Encodes”.flac

Track gain : -11.74 dB
Peak : 1.000000
CRC32 hash (test run) : 032D62A9
CRC32 hash : 032D62A9
CRC32 hash (skip zero) : 63960B65
AccurateRip signature : 07EFA3C8
->Track not present in AccurateRip database.
Statistics
Read error : 0
Skipped (treated as error) : 0
Edge jitter error (maybe fixed) : 0
Atom jitter error (maybe fixed) : 0
Drift error (maybe fixed) : 0
Dropped bytes error (maybe fixed) : 0
Duplicated bytes error (maybe fixed) : 0
Inconsistency in error sectors : 0

Track 18
Filename : /Users/flaw5001/Desktop/Downloads/Ipod Video/18. Photographs – Zebrahead – Phoenix [Bonus Tracks] – ”FLAW5001 Encodes”.flac

Track gain : -11.46 dB
Peak : 1.000000
CRC32 hash (test run) : 63287054
CRC32 hash : 63287054
CRC32 hash (skip zero) : D31258B5
AccurateRip signature : 87047BA1
->Track not present in AccurateRip database.
Statistics
Read error : 0
Skipped (treated as error) : 0
Edge jitter error (maybe fixed) : 0
Atom jitter error (maybe fixed) : 0
Drift error (maybe fixed) : 0
Dropped bytes error (maybe fixed) : 0
Duplicated bytes error (maybe fixed) : 0
Inconsistency in error sectors : 0

No errors occurred

End of status report

TITLE “Phoenix (Fanclub Edition)”
PERFORMER “Zebrahead”
REM GENRE “Alternative”
REM DATE 2008
REM DISCNUMBER 1
REM TOTALDISCS 1
REM DISCID E50E8B12
FILE “01 – HMP.wav” WAVE
TRACK 01 AUDIO
TITLE “HMP”
INDEX 01 00:00:00
FILE “02 – Hell Yeah!.wav” WAVE
TRACK 02 AUDIO
TITLE “Hell Yeah!”
INDEX 01 00:00:00
FILE “03 – Just The Tip.wav” WAVE
TRACK 03 AUDIO
TITLE “Just The Tip”
INDEX 01 00:00:00
FILE “04 – Mental Health.wav” WAVE
TRACK 04 AUDIO
TITLE “Mental Health”
INDEX 01 00:00:00
FILE “05 – The Juggernauts.wav” WAVE
TRACK 05 AUDIO
TITLE “The Juggernauts”
INDEX 01 00:00:00
FILE “06 – Death By Disco.wav” WAVE
TRACK 06 AUDIO
TITLE “Death By Disco”
INDEX 01 00:00:00
FILE “07 – Be Careful What You Wish For.wav” WAVE
TRACK 07 AUDIO
TITLE “Be Careful What You Wish For”
INDEX 01 00:00:00
FILE “08 – Morse Code For Suckers.wav” WAVE
TRACK 08 AUDIO
TITLE “Morse Code For Suckers”
INDEX 01 00:00:00
FILE “09 – Ignite.wav” WAVE
TRACK 09 AUDIO
TITLE “Ignite”
INDEX 01 00:00:00
FILE “10 – Mike Dexter Is A God, Mike Dexter Is A Role Model, Mike Dexter Is An A**Hole.wav” WAVE
TRACK 10 AUDIO
TITLE “Mike Dexter Is A God, Mike Dexter Is A Role Model, Mike Dexter Is An A**Hole”
INDEX 01 00:00:00
FILE “11 – The Junkie And The Halo.wav” WAVE
TRACK 11 AUDIO
TITLE “The Junkie And The Halo”
INDEX 01 00:00:00
FILE “12 – Brixton.wav” WAVE
TRACK 12 AUDIO
TITLE “Brixton”
INDEX 01 00:00:00
FILE “13 – Hit The Ground.wav” WAVE
TRACK 13 AUDIO
TITLE “Hit The Ground”
INDEX 01 00:00:00
FILE “14 – Two Wrongs Don’t Make A Right, But Three Rights Make A Left.wav” WAVE
TRACK 14 AUDIO
TITLE “Two Wrongs Don’t Make A Right, But Three Rights Make A Left”
INDEX 01 00:00:00
FILE “15 – All For None And None For All.wav” WAVE
TRACK 15 AUDIO
TITLE “All For None And None For All”
INDEX 01 00:00:00
FILE “16 – Sorry, But Your Friends Are Hot.wav” WAVE
TRACK 16 AUDIO
TITLE “Sorry, But Your Friends Are Hot”
INDEX 01 00:00:00
FILE “17 – Politics.wav” WAVE
TRACK 17 AUDIO
TITLE “Politics”
INDEX 01 00:00:00
FILE “18 – Photographs.wav” WAVE
TRACK 18 AUDIO
TITLE “Photographs”
INDEX 01 00:00:00


Leave a Reply

Your email address will not be published. Required fields are marked *

Enter the text from the image below
 

This site uses Akismet to reduce spam. Learn how your comment data is processed.