Zebrahead – MFZB (Japanese Edition)




No Cover available

Artist: Zebrahead
Year: 2003
Genre: Rock
Notes: Discogs
Add. Notes: Japanese Edition
Watch Songs on: YouTube
Cover incl.: Yes
Encoder: FLAC
Bitrate: ~1000 kBit/s (44.1 kHz/16 Bit/s)
Log & Cue incl.: Yes/Yes
Size: 448,5 MB
Password: “slam” (without ” “)


All Downloads/Hosters are compatible

Download 1
KatFile.com
Turbobit.net
Rapidgator.net
FileFactory.com
Download 2
KatFile.com
Turbobit.net
Rapidgator.net
FileFactory.com

Tracklist:

1 Rescue Me 3:19
2 Over The Edge 2:46
3 Strength 3:26
4 Hello Tomorrow 4:04
5 The Set-Up 3:15
6 Blur 3:39
7 House Is Not My Home 3:21
8 Into You 3:11
9 Alone 2:16
10 Expectations 3:43
11 Falling Apart 3:10
12 Let It Ride 3:09
13 Type A 2:12
14 Runaway 3:22
15 Dear You (Far Away) 3:38
16 The Fear 2:45
17 Surrender 3:08
18 Good Thing 3:03
19 Dissatisfied 3:05

EAC-Log, CUE-Sheed & NFO:

Click to open spoiler
Exact Audio Copy V0.99 prebeta 3 from 28. July 2007

EAC extraction logfile from 4. July 2008, 17:15

Zebrahead / MFZB [Japan]

Used drive : _NEC DVD_RW ND-3500AG Adapter: 0 ID: 0

Read mode : Burst

Read offset correction : 48
Overread into Lead-In and Lead-Out : No
Fill up missing offset samples with silence : Yes
Delete leading and trailing silent blocks : No
Null samples used in CRC calculations : Yes
Used interface : Native Win32 interface for Win NT & 2000
Gap handling : Appended to previous track

Used output format : User Defined Encoder
Selected bitrate : 128 kBit/s
Quality : High
Add ID3 tag : No
Command line compressor : C:\Program Files\FLAC\flac.exe
Additional command line options : -V -8 -T \”artist=%a\” -T \”title=%t\” -T \”album=%g\” -T \”date=%y\” -T \”tracknumber=%n\” -T \”genre=%m\” %s

TOC of the extracted CD

Track | Start | Length | Start sector | End sector
———————————————————
1 | 0:00.00 | 3:19.05 | 0 | 14929
2 | 3:19.05 | 2:46.13 | 14930 | 27392
3 | 6:05.18 | 3:26.10 | 27393 | 42852
4 | 9:31.28 | 4:04.60 | 42853 | 61212
5 | 13:36.13 | 3:15.70 | 61213 | 75907
6 | 16:52.08 | 3:39.27 | 75908 | 92359
7 | 20:31.35 | 3:21.63 | 92360 | 107497
8 | 23:53.23 | 3:11.40 | 107498 | 121862
9 | 27:04.63 | 2:16.25 | 121863 | 132087
10 | 29:21.13 | 3:43.52 | 132088 | 148864
11 | 33:04.65 | 3:10.00 | 148865 | 163114
12 | 36:14.65 | 3:09.40 | 163115 | 177329
13 | 39:24.30 | 2:12.23 | 177330 | 187252
14 | 41:36.53 | 3:22.62 | 187253 | 202464
15 | 44:59.40 | 4:38.42 | 202465 | 223356
16 | 49:38.07 | 2:45.41 | 223357 | 235772
17 | 52:23.48 | 3:08.10 | 235773 | 249882
18 | 55:31.58 | 3:03.10 | 249883 | 263617
19 | 58:34.68 | 3:05.50 | 263618 | 277542

Track 1

Filename C:\Documents and Settings\Andrew\Desktop\Zebrahead – MFZB [Japan] FLAC\01 – Rescue Me.wav

Pre-gap length 0:00:02.00

Peak level 98.9 %
Test CRC 26EAD7B1
Copy CRC 26EAD7B1
Track not present in AccurateRip database
Copy OK

Track 2

Filename C:\Documents and Settings\Andrew\Desktop\Zebrahead – MFZB [Japan] FLAC\02 – Over The Edge.wav

Pre-gap length 0:00:00.01

Peak level 98.9 %
Test CRC EC661982
Copy CRC EC661982
Track not present in AccurateRip database
Copy OK

Track 3

Filename C:\Documents and Settings\Andrew\Desktop\Zebrahead – MFZB [Japan] FLAC\03 – Strength.wav

Peak level 99.0 %
Test CRC 5E0415FA
Copy CRC 5E0415FA
Track not present in AccurateRip database
Copy OK

Track 4

Filename C:\Documents and Settings\Andrew\Desktop\Zebrahead – MFZB [Japan] FLAC\04 – Hello Tomorrow.wav

Pre-gap length 0:00:00.11

Peak level 99.2 %
Test CRC 85485374
Copy CRC 85485374
Track not present in AccurateRip database
Copy OK

Track 5

Filename C:\Documents and Settings\Andrew\Desktop\Zebrahead – MFZB [Japan] FLAC\05 – The Set-Up.wav

Peak level 99.0 %
Test CRC AB06C1F9
Copy CRC AB06C1F9
Track not present in AccurateRip database
Copy OK

Track 6

Filename C:\Documents and Settings\Andrew\Desktop\Zebrahead – MFZB [Japan] FLAC\06 – Blur.wav

Peak level 99.2 %
Test CRC 156F1103
Copy CRC 156F1103
Track not present in AccurateRip database
Copy OK

Track 7

Filename C:\Documents and Settings\Andrew\Desktop\Zebrahead – MFZB [Japan] FLAC\07 – House Is Not My Home.wav

Peak level 99.2 %
Test CRC 9837974B
Copy CRC 9837974B
Track not present in AccurateRip database
Copy OK

Track 8

Filename C:\Documents and Settings\Andrew\Desktop\Zebrahead – MFZB [Japan] FLAC\08 – Into You.wav

Peak level 99.4 %
Test CRC 4915CAEB
Copy CRC 4915CAEB
Track not present in AccurateRip database
Copy OK

Track 9

Filename C:\Documents and Settings\Andrew\Desktop\Zebrahead – MFZB [Japan] FLAC\09 – Alone.wav

Pre-gap length 0:00:00.07

Peak level 99.3 %
Test CRC 2A4BCC6E
Copy CRC 2A4BCC6E
Track not present in AccurateRip database
Copy OK

Track 10

Filename C:\Documents and Settings\Andrew\Desktop\Zebrahead – MFZB [Japan] FLAC\10 – Expectations.wav

Peak level 98.9 %
Test CRC A5A978D5
Copy CRC A5A978D5
Track not present in AccurateRip database
Copy OK

Track 11

Filename C:\Documents and Settings\Andrew\Desktop\Zebrahead – MFZB [Japan] FLAC\11 – Falling Apart.wav

Peak level 98.9 %
Test CRC BDF559B6
Copy CRC BDF559B6
Track not present in AccurateRip database
Copy OK

Track 12

Filename C:\Documents and Settings\Andrew\Desktop\Zebrahead – MFZB [Japan] FLAC\12 – Let It Ride.wav

Peak level 99.1 %
Test CRC 6E159AF1
Copy CRC 6E159AF1
Track not present in AccurateRip database
Copy OK

Track 13

Filename C:\Documents and Settings\Andrew\Desktop\Zebrahead – MFZB [Japan] FLAC\13 – Type A.wav

Peak level 99.0 %
Test CRC B2A0C8C7
Copy CRC B2A0C8C7
Track not present in AccurateRip database
Copy OK

Track 14

Filename C:\Documents and Settings\Andrew\Desktop\Zebrahead – MFZB [Japan] FLAC\14 – RunaWay.wav

Peak level 99.0 %
Test CRC 1829A31D
Copy CRC 1829A31D
Track not present in AccurateRip database
Copy OK

Track 15

Filename C:\Documents and Settings\Andrew\Desktop\Zebrahead – MFZB [Japan] FLAC\15 – Dear You (Far Away).wav

Peak level 99.0 %
Test CRC 250CF306
Copy CRC 250CF306
Track not present in AccurateRip database
Copy OK

Track 16

Filename C:\Documents and Settings\Andrew\Desktop\Zebrahead – MFZB [Japan] FLAC\16 – The Fear.wav

Peak level 99.1 %
Test CRC 924BDC3E
Copy CRC 924BDC3E
Track not present in AccurateRip database
Copy OK

Track 17

Filename C:\Documents and Settings\Andrew\Desktop\Zebrahead – MFZB [Japan] FLAC\17 – Surrender.wav

Peak level 98.8 %
Test CRC 7164C115
Copy CRC 7164C115
Track not present in AccurateRip database
Copy OK

Track 18

Filename C:\Documents and Settings\Andrew\Desktop\Zebrahead – MFZB [Japan] FLAC\18 – Good Thing.wav

Pre-gap length 0:00:00.02

Peak level 98.8 %
Test CRC B1B000BE
Copy CRC B1B000BE
Track not present in AccurateRip database
Copy OK

Track 19

Filename C:\Documents and Settings\Andrew\Desktop\Zebrahead – MFZB [Japan] FLAC\19 – Dissatisfied.wav

Pre-gap length 0:00:01.71

Peak level 98.8 %
Test CRC 988D424A
Copy CRC 988D424A
Track not present in AccurateRip database
Copy OK

None of the tracks are present in the AccurateRip database

No errors occurred

End of status report

REM GENRE Rock
REM DATE 2003
REM DISCID 070E7413
REM COMMENT “ExactAudioCopy v0.99pb3”
PERFORMER “Zebrahead”
TITLE “MFZB [Japan]”
FILE “01 – Rescue Me.wav” WAVE
TRACK 01 AUDIO
TITLE “Rescue Me”
PERFORMER “Zebrahead”
INDEX 01 00:00:00
TRACK 02 AUDIO
TITLE “Over The Edge”
PERFORMER “Zebrahead”
INDEX 00 03:19:04
FILE “02 – Over The Edge.wav” WAVE
INDEX 01 00:00:00
FILE “03 – Strength.wav” WAVE
TRACK 03 AUDIO
TITLE “Strength”
PERFORMER “Zebrahead”
INDEX 01 00:00:00
TRACK 04 AUDIO
TITLE “Hello Tomorrow”
PERFORMER “Zebrahead”
INDEX 00 03:25:74
FILE “04 – Hello Tomorrow.wav” WAVE
INDEX 01 00:00:00
FILE “05 – The Set-Up.wav” WAVE
TRACK 05 AUDIO
TITLE “The Set-Up”
PERFORMER “Zebrahead”
INDEX 01 00:00:00
FILE “06 – Blur.wav” WAVE
TRACK 06 AUDIO
TITLE “Blur”
PERFORMER “Zebrahead”
INDEX 01 00:00:00
FILE “07 – House Is Not My Home.wav” WAVE
TRACK 07 AUDIO
TITLE “House Is Not My Home”
PERFORMER “Zebrahead”
INDEX 01 00:00:00
FILE “08 – Into You.wav” WAVE
TRACK 08 AUDIO
TITLE “Into You”
PERFORMER “Zebrahead”
INDEX 01 00:00:00
TRACK 09 AUDIO
TITLE “Alone”
PERFORMER “Zebrahead”
INDEX 00 03:11:33
FILE “09 – Alone.wav” WAVE
INDEX 01 00:00:00
FILE “10 – Expectations.wav” WAVE
TRACK 10 AUDIO
TITLE “Expectations”
PERFORMER “Zebrahead”
INDEX 01 00:00:00
FILE “11 – Falling Apart.wav” WAVE
TRACK 11 AUDIO
TITLE “Falling Apart”
PERFORMER “Zebrahead”
INDEX 01 00:00:00
FILE “12 – Let It Ride.wav” WAVE
TRACK 12 AUDIO
TITLE “Let It Ride”
PERFORMER “Zebrahead”
INDEX 01 00:00:00
FILE “13 – Type A.wav” WAVE
TRACK 13 AUDIO
TITLE “Type A”
PERFORMER “Zebrahead”
INDEX 01 00:00:00
FILE “14 – RunaWay.wav” WAVE
TRACK 14 AUDIO
TITLE “RunaWay”
PERFORMER “Zebrahead”
INDEX 01 00:00:00
FILE “15 – Dear You (Far Away).wav” WAVE
TRACK 15 AUDIO
TITLE “Dear You (Far Away)”
PERFORMER “Zebrahead”
INDEX 01 00:00:00
FILE “16 – The Fear.wav” WAVE
TRACK 16 AUDIO
TITLE “The Fear”
PERFORMER “Zebrahead”
INDEX 01 00:00:00
FILE “17 – Surrender.wav” WAVE
TRACK 17 AUDIO
TITLE “Surrender”
PERFORMER “Zebrahead”
INDEX 01 00:00:00
TRACK 18 AUDIO
TITLE “Good Thing”
PERFORMER “Zebrahead”
INDEX 00 03:08:08
FILE “18 – Good Thing.wav” WAVE
INDEX 01 00:00:00
TRACK 19 AUDIO
TITLE “Dissatisfied”
PERFORMER “Zebrahead”
INDEX 00 03:01:14
FILE “19 – Dissatisfied.wav” WAVE
INDEX 01 00:00:00


Leave a Reply

Your email address will not be published. Required fields are marked *

This site uses Akismet to reduce spam. Learn how your comment data is processed.