Zebrahead – Get Nice! (Japanese Edition)




No Cover available

Artist: Zebrahead
Year: 2011
Genre: Punk
Notes: Discogs
Add. Notes: Japanese Edition
Watch Songs on: YouTube
Cover incl.: Yes
Encoder: FLAC
Bitrate: ~1100 kBit/s (44.1 kHz/16 Bit/s)
Log & Cue incl.: Yes/Yes
Size: 434,2 MB
Password: “slam” (without ” “)


All Downloads/Hosters are compatible

Download 1
KatFile.com
Turbobit.net
Rapidgator.net
FileFactory.com
Download 2
KatFile.com
Turbobit.net
Rapidgator.net
FileFactory.com

Tracklist:

1 Blackout 3:45
2 Nothing To Lose 3:54
3 She Don't Wanna Rock 3:09
4 Ricky Bobby 2:43
5 Get Nice! 3:23
6 The Joke's On You 3:03
7 Nudist Priest 3:39
8 Galileo Was Wrong 3:16
9 Truck Stops And Tail Lights 3:22
10 I'm Definitely Not Gonna Miss You 3:49
11 Too Bored To Bleed 3:59
12 Kiss Your Ass Goodbye 4:10
13 This Is Gonna Hurt You Way More Than It's Gonna 
Hurt Me 4:04
14 Demon Days 3:05

Japan Bonus Songs:
15 Light Up The Sky 3:45
16 A Freak Gasoline Fight Accident 3:09

EAC-Log, CUE-Sheed & NFO:

Click to open spoiler
X Lossless Decoder version 20120407 (140.0)

XLD extraction logfile from 2012-04-12 16:54:31 -0700

Zebrahead / Get Nice! (Japanese Edition)

Used drive : HL-DT-ST DVDRW GS23N (revision SB00)

Ripper mode : XLD Secure Ripper
Disable audio cache : OK for the drive with a cache less than 1375KiB
Make use of C2 pointers : NO
Read offset correction : 667
Max retry count : 100
Gap status : Analyzed, Appended (except HTOA)

TOC of the extracted CD
Track | Start | Length | Start sector | End sector
———————————————————
1 | 00:00:00 | 03:45:26 | 0 | 16900
2 | 03:45:26 | 03:53:47 | 16901 | 34422
3 | 07:38:73 | 03:09:30 | 34423 | 48627
4 | 10:48:28 | 02:42:60 | 48628 | 60837
5 | 13:31:13 | 03:23:08 | 60838 | 76070
6 | 16:54:21 | 03:03:23 | 76071 | 89818
7 | 19:57:44 | 03:38:71 | 89819 | 106239
8 | 23:36:40 | 03:15:52 | 106240 | 120916
9 | 26:52:17 | 03:22:00 | 120917 | 136066
10 | 30:14:17 | 03:48:49 | 136067 | 153215
11 | 34:02:66 | 03:58:71 | 153216 | 171136
12 | 38:01:62 | 04:10:30 | 171137 | 189916
13 | 42:12:17 | 04:03:70 | 189917 | 208211
14 | 46:16:12 | 03:05:20 | 208212 | 222106
15 | 49:21:32 | 03:45:35 | 222107 | 239016
16 | 53:06:67 | 03:08:73 | 239017 | 253189

AccurateRip Summary
Disc not found in AccurateRip DB.

All Tracks
Album gain : -11.59 dB
Peak : 0.988617
Statistics
Read error : 0
Jitter error (maybe fixed) : 0
Retry sector count : 0
Damaged sector count : 0

Track 01
Filename : /Users/Shared/XLD/01 – Blackout.flac
/Users/Shared/XLD/01 – Blackout(LAME MP3 (V2)).mp3
/Users/Shared/XLD/01 – Blackout(LAME MP3 (V0)).mp3
Pre-gap length : 00:02:00

Track gain : -11.68 dB
Peak : 0.988586
CRC32 hash (test run) : 37FDCA00
CRC32 hash : 37FDCA00
CRC32 hash (skip zero) : 61A51D23
AccurateRip signature : A5314C2F
->Track not present in AccurateRip database.
Statistics
Read error : 0
Jitter error (maybe fixed) : 0
Retry sector count : 0
Damaged sector count : 0

Track 02
Filename : /Users/Shared/XLD/02 – Nothing to Lose.flac
/Users/Shared/XLD/02 – Nothing to Lose(LAME MP3 (V2)).mp3
/Users/Shared/XLD/02 – Nothing to Lose(LAME MP3 (V0)).mp3

Track gain : -11.65 dB
Peak : 0.988586
CRC32 hash (test run) : AA13480D
CRC32 hash : AA13480D
CRC32 hash (skip zero) : AA28B2A9
AccurateRip signature : 6DBDCD01
->Track not present in AccurateRip database.
Statistics
Read error : 0
Jitter error (maybe fixed) : 0
Retry sector count : 0
Damaged sector count : 0

Track 03
Filename : /Users/Shared/XLD/03 – She Don’t Wanna Rock.flac
/Users/Shared/XLD/03 – She Don’t Wanna Rock(LAME MP3 (V2)).mp3
/Users/Shared/XLD/03 – She Don’t Wanna Rock(LAME MP3 (V0)).mp3

Track gain : -12.53 dB
Peak : 0.988586
CRC32 hash (test run) : 1E46FB37
CRC32 hash : 1E46FB37
CRC32 hash (skip zero) : 338DE4FD
AccurateRip signature : 9337DBF8
->Track not present in AccurateRip database.
Statistics
Read error : 0
Jitter error (maybe fixed) : 0
Retry sector count : 0
Damaged sector count : 0

Track 04
Filename : /Users/Shared/XLD/04 – Ricky Bobby.flac
/Users/Shared/XLD/04 – Ricky Bobby(LAME MP3 (V2)).mp3
/Users/Shared/XLD/04 – Ricky Bobby(LAME MP3 (V0)).mp3

Track gain : -11.17 dB
Peak : 0.988586
CRC32 hash (test run) : 067B7283
CRC32 hash : 067B7283
CRC32 hash (skip zero) : 75739246
AccurateRip signature : ACD9696C
->Track not present in AccurateRip database.
Statistics
Read error : 0
Jitter error (maybe fixed) : 0
Retry sector count : 0
Damaged sector count : 0

Track 05
Filename : /Users/Shared/XLD/05 – Get Nice!.flac
/Users/Shared/XLD/05 – Get Nice!(LAME MP3 (V2)).mp3
/Users/Shared/XLD/05 – Get Nice!(LAME MP3 (V0)).mp3

Track gain : -11.44 dB
Peak : 0.988586
CRC32 hash (test run) : F9E8D966
CRC32 hash : F9E8D966
CRC32 hash (skip zero) : 752EBA8F
AccurateRip signature : 00981710
->Track not present in AccurateRip database.
Statistics
Read error : 0
Jitter error (maybe fixed) : 0
Retry sector count : 0
Damaged sector count : 0

Track 06
Filename : /Users/Shared/XLD/06 – The Joke’s On You.flac
/Users/Shared/XLD/06 – The Joke’s On You(LAME MP3 (V2)).mp3
/Users/Shared/XLD/06 – The Joke’s On You(LAME MP3 (V0)).mp3

Track gain : -11.45 dB
Peak : 0.988586
CRC32 hash (test run) : CE417435
CRC32 hash : CE417435
CRC32 hash (skip zero) : 19BF9346
AccurateRip signature : DDCE8769
->Track not present in AccurateRip database.
Statistics
Read error : 0
Jitter error (maybe fixed) : 0
Retry sector count : 0
Damaged sector count : 0

Track 07
Filename : /Users/Shared/XLD/07 – Nudist Priest.flac
/Users/Shared/XLD/07 – Nudist Priest(LAME MP3 (V2)).mp3
/Users/Shared/XLD/07 – Nudist Priest(LAME MP3 (V0)).mp3

Track gain : -11.73 dB
Peak : 0.988586
CRC32 hash (test run) : 0FE6647C
CRC32 hash : 0FE6647C
CRC32 hash (skip zero) : 37050D52
AccurateRip signature : 10534634
->Track not present in AccurateRip database.
Statistics
Read error : 0
Jitter error (maybe fixed) : 0
Retry sector count : 0
Damaged sector count : 0

Track 08
Filename : /Users/Shared/XLD/08 – Galileo Was Wrong.flac
/Users/Shared/XLD/08 – Galileo Was Wrong(LAME MP3 (V2)).mp3
/Users/Shared/XLD/08 – Galileo Was Wrong(LAME MP3 (V0)).mp3

Track gain : -10.69 dB
Peak : 0.988586
CRC32 hash (test run) : EF56F08F
CRC32 hash : EF56F08F
CRC32 hash (skip zero) : C3D899CF
AccurateRip signature : 67EF120A
->Track not present in AccurateRip database.
Statistics
Read error : 0
Jitter error (maybe fixed) : 0
Retry sector count : 0
Damaged sector count : 0

Track 09
Filename : /Users/Shared/XLD/09 – Truck Stops and Tail Lights.flac
/Users/Shared/XLD/09 – Truck Stops and Tail Lights(LAME MP3 (V2)).mp3
/Users/Shared/XLD/09 – Truck Stops and Tail Lights(LAME MP3 (V0)).mp3

Track gain : -10.64 dB
Peak : 0.988586
CRC32 hash (test run) : 09C37DB6
CRC32 hash : 09C37DB6
CRC32 hash (skip zero) : 4706B821
AccurateRip signature : E432EB4E
->Track not present in AccurateRip database.
Statistics
Read error : 0
Jitter error (maybe fixed) : 0
Retry sector count : 0
Damaged sector count : 0

Track 10
Filename : /Users/Shared/XLD/10 – I’m Definitely Not Gonna Miss You.flac
/Users/Shared/XLD/10 – I’m Definitely Not Gonna Miss You(LAME MP3 (V2)).mp3
/Users/Shared/XLD/10 – I’m Definitely Not Gonna Miss You(LAME MP3 (V0)).mp3

Track gain : -10.93 dB
Peak : 0.988586
CRC32 hash (test run) : E2B3CF23
CRC32 hash : E2B3CF23
CRC32 hash (skip zero) : 251DFF68
AccurateRip signature : 73DE9700
->Track not present in AccurateRip database.
Statistics
Read error : 0
Jitter error (maybe fixed) : 0
Retry sector count : 0
Damaged sector count : 0

Track 11
Filename : /Users/Shared/XLD/11 – Too Bored to Bleed.flac
/Users/Shared/XLD/11 – Too Bored to Bleed(LAME MP3 (V2)).mp3
/Users/Shared/XLD/11 – Too Bored to Bleed(LAME MP3 (V0)).mp3

Track gain : -10.83 dB
Peak : 0.988586
CRC32 hash (test run) : 977B5690
CRC32 hash : 977B5690
CRC32 hash (skip zero) : F018B08E
AccurateRip signature : D017F536
->Track not present in AccurateRip database.
Statistics
Read error : 0
Jitter error (maybe fixed) : 0
Retry sector count : 0
Damaged sector count : 0

Track 12
Filename : /Users/Shared/XLD/12 – Kiss Your Ass Goodbye.flac
/Users/Shared/XLD/12 – Kiss Your Ass Goodbye(LAME MP3 (V2)).mp3
/Users/Shared/XLD/12 – Kiss Your Ass Goodbye(LAME MP3 (V0)).mp3

Track gain : -11.54 dB
Peak : 0.988586
CRC32 hash (test run) : 2B24A6D6
CRC32 hash : 2B24A6D6
CRC32 hash (skip zero) : D0B9F921
AccurateRip signature : 0BC654E6
->Track not present in AccurateRip database.
Statistics
Read error : 0
Jitter error (maybe fixed) : 0
Retry sector count : 0
Damaged sector count : 0

Track 13
Filename : /Users/Shared/XLD/13 – This Is Gonna Hurt You Way More Than It’s Gonna Hurt Me.flac
/Users/Shared/XLD/13 – This Is Gonna Hurt You Way More Than It’s Gonna Hurt Me(LAME MP3 (V2)).mp3
/Users/Shared/XLD/13 – This Is Gonna Hurt You Way More Than It’s Gonna Hurt Me(LAME MP3 (V0)).mp3

Track gain : -11.07 dB
Peak : 0.988586
CRC32 hash (test run) : C5DC861C
CRC32 hash : C5DC861C
CRC32 hash (skip zero) : 7E74195E
AccurateRip signature : 6D83EF11
->Track not present in AccurateRip database.
Statistics
Read error : 0
Jitter error (maybe fixed) : 0
Retry sector count : 0
Damaged sector count : 0

Track 14
Filename : /Users/Shared/XLD/14 – Demon Days.flac
/Users/Shared/XLD/14 – Demon Days(LAME MP3 (V2)).mp3
/Users/Shared/XLD/14 – Demon Days(LAME MP3 (V0)).mp3

Track gain : -11.72 dB
Peak : 0.988586
CRC32 hash (test run) : 3A977822
CRC32 hash : 3A977822
CRC32 hash (skip zero) : 78105A18
AccurateRip signature : 6870F742
->Track not present in AccurateRip database.
Statistics
Read error : 0
Jitter error (maybe fixed) : 0
Retry sector count : 0
Damaged sector count : 0

Track 15
Filename : /Users/Shared/XLD/15 – Light Up the Sky (Bonus Song).flac
/Users/Shared/XLD/15 – Light Up the Sky (Bonus Song)(LAME MP3 (V2)).mp3
/Users/Shared/XLD/15 – Light Up the Sky (Bonus Song)(LAME MP3 (V0)).mp3

Track gain : -11.26 dB
Peak : 0.988617
CRC32 hash (test run) : 9ABA9A10
CRC32 hash : 9ABA9A10
CRC32 hash (skip zero) : CAEE40AF
AccurateRip signature : F8B90AD4
->Track not present in AccurateRip database.
Statistics
Read error : 0
Jitter error (maybe fixed) : 0
Retry sector count : 0
Damaged sector count : 0

Track 16
Filename : /Users/Shared/XLD/16 – A Freak Gasoline Fight Accident (Bonus Song).flac
/Users/Shared/XLD/16 – A Freak Gasoline Fight Accident (Bonus Song)(LAME MP3 (V2)).mp3
/Users/Shared/XLD/16 – A Freak Gasoline Fight Accident (Bonus Song)(LAME MP3 (V0)).mp3

Track gain : -12.14 dB
Peak : 0.988586
CRC32 hash (test run) : E2BE199D
CRC32 hash : E2BE199D
CRC32 hash (skip zero) : 221D6854
AccurateRip signature : 6A9E786B
->Track not present in AccurateRip database.
Statistics
Read error : 0
Jitter error (maybe fixed) : 0
Retry sector count : 0
Damaged sector count : 0

No errors occurred

End of status report

TITLE “Get Nice! (Japanese Edition)”
PERFORMER “Zebrahead”
REM GENRE “Pop-Punk”
REM DATE “2011”
REM DISCID DB0D2F10
REM REPLAYGAIN_ALBUM_GAIN -11.59 dB
REM REPLAYGAIN_ALBUM_PEAK 0.988617
FILE “01 – Blackout.flac” WAVE
TRACK 01 AUDIO
TITLE “Blackout”
ISRC JPP301100441
REM REPLAYGAIN_TRACK_GAIN -11.68 dB
REM REPLAYGAIN_TRACK_PEAK 0.988586
INDEX 01 00:00:00
FILE “02 – Nothing to Lose.flac” WAVE
TRACK 02 AUDIO
TITLE “Nothing to Lose”
ISRC JPP301100442
REM REPLAYGAIN_TRACK_GAIN -11.65 dB
REM REPLAYGAIN_TRACK_PEAK 0.988586
INDEX 01 00:00:00
FILE “03 – She Don’t Wanna Rock.flac” WAVE
TRACK 03 AUDIO
TITLE “She Don’t Wanna Rock”
ISRC JPP301100443
REM REPLAYGAIN_TRACK_GAIN -12.53 dB
REM REPLAYGAIN_TRACK_PEAK 0.988586
INDEX 01 00:00:00
FILE “04 – Ricky Bobby.flac” WAVE
TRACK 04 AUDIO
TITLE “Ricky Bobby”
ISRC JPP301100444
REM REPLAYGAIN_TRACK_GAIN -11.17 dB
REM REPLAYGAIN_TRACK_PEAK 0.988586
INDEX 01 00:00:00
FILE “05 – Get Nice!.flac” WAVE
TRACK 05 AUDIO
TITLE “Get Nice!”
ISRC JPP301100445
REM REPLAYGAIN_TRACK_GAIN -11.44 dB
REM REPLAYGAIN_TRACK_PEAK 0.988586
INDEX 01 00:00:00
FILE “06 – The Joke’s On You.flac” WAVE
TRACK 06 AUDIO
TITLE “The Joke’s On You”
ISRC JPP301100446
REM REPLAYGAIN_TRACK_GAIN -11.45 dB
REM REPLAYGAIN_TRACK_PEAK 0.988586
INDEX 01 00:00:00
FILE “07 – Nudist Priest.flac” WAVE
TRACK 07 AUDIO
TITLE “Nudist Priest”
ISRC JPP301100447
REM REPLAYGAIN_TRACK_GAIN -11.73 dB
REM REPLAYGAIN_TRACK_PEAK 0.988586
INDEX 01 00:00:00
FILE “08 – Galileo Was Wrong.flac” WAVE
TRACK 08 AUDIO
TITLE “Galileo Was Wrong”
ISRC JPP301100448
REM REPLAYGAIN_TRACK_GAIN -10.69 dB
REM REPLAYGAIN_TRACK_PEAK 0.988586
INDEX 01 00:00:00
FILE “09 – Truck Stops and Tail Lights.flac” WAVE
TRACK 09 AUDIO
TITLE “Truck Stops and Tail Lights”
ISRC JPP301100449
REM REPLAYGAIN_TRACK_GAIN -10.64 dB
REM REPLAYGAIN_TRACK_PEAK 0.988586
INDEX 01 00:00:00
FILE “10 – I’m Definitely Not Gonna Miss You.flac” WAVE
TRACK 10 AUDIO
TITLE “I’m Definitely Not Gonna Miss You”
ISRC JPP301100450
REM REPLAYGAIN_TRACK_GAIN -10.93 dB
REM REPLAYGAIN_TRACK_PEAK 0.988586
INDEX 01 00:00:00
FILE “11 – Too Bored to Bleed.flac” WAVE
TRACK 11 AUDIO
TITLE “Too Bored to Bleed”
ISRC JPP301100451
REM REPLAYGAIN_TRACK_GAIN -10.83 dB
REM REPLAYGAIN_TRACK_PEAK 0.988586
INDEX 01 00:00:00
FILE “12 – Kiss Your Ass Goodbye.flac” WAVE
TRACK 12 AUDIO
TITLE “Kiss Your Ass Goodbye”
ISRC JPP301100452
REM REPLAYGAIN_TRACK_GAIN -11.54 dB
REM REPLAYGAIN_TRACK_PEAK 0.988586
INDEX 01 00:00:00
FILE “13 – This Is Gonna Hurt You Way More Than It’s Gonna Hurt Me.flac” WAVE
TRACK 13 AUDIO
TITLE “This Is Gonna Hurt You Way More Than It’s Gonna Hurt Me”
ISRC JPP301100453
REM REPLAYGAIN_TRACK_GAIN -11.07 dB
REM REPLAYGAIN_TRACK_PEAK 0.988586
INDEX 01 00:00:00
FILE “14 – Demon Days.flac” WAVE
TRACK 14 AUDIO
TITLE “Demon Days”
ISRC JPP301100454
REM REPLAYGAIN_TRACK_GAIN -11.72 dB
REM REPLAYGAIN_TRACK_PEAK 0.988586
INDEX 01 00:00:00
FILE “15 – Light Up the Sky (Bonus Song).flac” WAVE
TRACK 15 AUDIO
TITLE “Light Up the Sky (Bonus Song)”
ISRC JPP301100455
REM REPLAYGAIN_TRACK_GAIN -11.26 dB
REM REPLAYGAIN_TRACK_PEAK 0.988617
INDEX 01 00:00:00
FILE “16 – A Freak Gasoline Fight Accident (Bonus Song).flac” WAVE
TRACK 16 AUDIO
TITLE “A Freak Gasoline Fight Accident (Bonus Song)”
ISRC JPP301100456
REM REPLAYGAIN_TRACK_GAIN -12.14 dB
REM REPLAYGAIN_TRACK_PEAK 0.988586
INDEX 01 00:00:00


Leave a Reply

Your email address will not be published. Required fields are marked *

This site uses Akismet to reduce spam. Learn how your comment data is processed.