Zebrahead – Broadcast to the World




No Cover available

Artist: Zebrahead
Year: 2006
Genre: Punk
Notes: Discogs
Add. Notes:
Watch Songs on: YouTube
Cover incl.: Yes
Encoder: FLAC
Bitrate: ~1000 kBit/s (44.1 kHz/16 Bit/s)
Log & Cue incl.: Yes/Yes
Size: 304,8 MB
Password: “slam” (without ” “)


All Downloads/Hosters are compatible

Download 1
KatFile.com
Turbobit.net
Rapidgator.net
FileFactory.com
Download 2
KatFile.com
Turbobit.net
Rapidgator.net
FileFactory.com

Tracklist:

1 Broadcast To The World 3:17
2 Rated "U" For Ugly 3:02
3 Anthem 3:33
4 Enemy 2:56
5 Back To Normal 3:40
6 Postcards From Hell 2:45
7 Karma Flavored Whiskey 4:08
8 Here's To You 3:07
9 Wake Me Up 3:50
10 Lobotomy For Dummies 2:36
11 The Walking Dead 3:10
12 Your New Boyfriend Wears Girl Pants 4:28

EAC-Log, CUE-Sheed & NFO:

Click to open spoiler
X Lossless Decoder version 20101010 (123.3)

XLD extraction logfile from 2010-10-13 22:24:13 -0500

Zebrahead / Broadcast to the World

Used drive : SONY DVD RW DW-Q28A (revision KAS7)

Use cdparanoia mode : YES (CDParanoia III 10.2 engine)
Disable audio cache : OK for the drive with cache less than 2750KB
Make use of C2 pointers : NO
Read offset correction : 12
Max retry count : 100
Gap status : Analyzed, Appended

TOC of the extracted CD
Track | Start | Length | Start sector | End sector
———————————————————
1 | 00:00:00 | 03:16:54 | 0 | 14753
2 | 03:16:54 | 03:01:70 | 14754 | 28398
3 | 06:18:49 | 03:33:10 | 28399 | 44383
4 | 09:51:59 | 02:56:26 | 44384 | 57609
5 | 12:48:10 | 03:40:17 | 57610 | 74126
6 | 16:28:27 | 02:45:29 | 74127 | 86530
7 | 19:13:56 | 04:07:55 | 86531 | 105110
8 | 23:21:36 | 03:07:10 | 105111 | 119145
9 | 26:28:46 | 03:49:58 | 119146 | 136378
10 | 30:18:29 | 02:36:33 | 136379 | 148111
11 | 32:54:62 | 03:09:63 | 148112 | 162349
12 | 36:04:50 | 04:28:20 | 162350 | 182469

List of alternate offset correction values
# | Absolute | Relative | Confidence
——————————————
1 | -68 | -80 | 10

All Tracks
Album gain : -10.67 dB
Peak : 0.995544

Track 01
Filename : /Volumes/Transmission/XLD OUTPUT/Zebrahead – Broadcast to the World [FLAC]/01 – Broadcast to the World.flac
/Volumes/Transmission/XLD OUTPUT/Zebrahead – Broadcast to the World [LAME MP3]/01 – Broadcast to the World.mp3
Pre-gap length : 00:02:00

Track gain : -10.13 dB
Peak : 0.988556
CRC32 hash (test run) : B4C36DD0
CRC32 hash : B4C36DD0
CRC32 hash (skip zero) : C2240E47
AccurateRip signature : B72729EE
->Accurately ripped! (confidence 4)
Statistics
Read error : 0
Skipped (treated as error) : 0
Edge jitter error (maybe fixed) : 0
Atom jitter error (maybe fixed) : 0
Drift error (maybe fixed) : 0
Dropped bytes error (maybe fixed) : 0
Duplicated bytes error (maybe fixed) : 0

Track 02
Filename : /Volumes/Transmission/XLD OUTPUT/Zebrahead – Broadcast to the World [FLAC]/02 – Rated “U” for ugly.flac
/Volumes/Transmission/XLD OUTPUT/Zebrahead – Broadcast to the World [LAME MP3]/02 – Rated “U” for ugly.mp3

Track gain : -10.79 dB
Peak : 0.988556
CRC32 hash (test run) : E7ACA7F9
CRC32 hash : E7ACA7F9
CRC32 hash (skip zero) : A6F75E60
AccurateRip signature : 8A86F342
->Accurately ripped! (confidence 4)
Statistics
Read error : 0
Skipped (treated as error) : 0
Edge jitter error (maybe fixed) : 0
Atom jitter error (maybe fixed) : 0
Drift error (maybe fixed) : 0
Dropped bytes error (maybe fixed) : 0
Duplicated bytes error (maybe fixed) : 0

Track 03
Filename : /Volumes/Transmission/XLD OUTPUT/Zebrahead – Broadcast to the World [FLAC]/03 – Anthem.flac
/Volumes/Transmission/XLD OUTPUT/Zebrahead – Broadcast to the World [LAME MP3]/03 – Anthem.mp3

Track gain : -10.23 dB
Peak : 0.988556
CRC32 hash (test run) : 61128253
CRC32 hash : 61128253
CRC32 hash (skip zero) : 398A4E99
AccurateRip signature : 65989790
->Accurately ripped! (confidence 4)
Statistics
Read error : 0
Skipped (treated as error) : 0
Edge jitter error (maybe fixed) : 1
Atom jitter error (maybe fixed) : 1
Drift error (maybe fixed) : 0
Dropped bytes error (maybe fixed) : 0
Duplicated bytes error (maybe fixed) : 0

Track 04
Filename : /Volumes/Transmission/XLD OUTPUT/Zebrahead – Broadcast to the World [FLAC]/04 – Enemy.flac
/Volumes/Transmission/XLD OUTPUT/Zebrahead – Broadcast to the World [LAME MP3]/04 – Enemy.mp3

Track gain : -10.78 dB
Peak : 0.990631
CRC32 hash (test run) : 85F2619F
CRC32 hash : 85F2619F
CRC32 hash (skip zero) : 5A323C71
AccurateRip signature : 0F4DE82D
->Accurately ripped! (confidence 4)
Statistics
Read error : 0
Skipped (treated as error) : 0
Edge jitter error (maybe fixed) : 0
Atom jitter error (maybe fixed) : 0
Drift error (maybe fixed) : 0
Dropped bytes error (maybe fixed) : 0
Duplicated bytes error (maybe fixed) : 0

Track 05
Filename : /Volumes/Transmission/XLD OUTPUT/Zebrahead – Broadcast to the World [FLAC]/05 – Back to Normal.flac
/Volumes/Transmission/XLD OUTPUT/Zebrahead – Broadcast to the World [LAME MP3]/05 – Back to Normal.mp3

Track gain : -9.62 dB
Peak : 0.988556
CRC32 hash (test run) : 9EE19DB0
CRC32 hash : 9EE19DB0
CRC32 hash (skip zero) : 96B26632
AccurateRip signature : 5B17AE0C
->Accurately ripped! (confidence 4)
Statistics
Read error : 0
Skipped (treated as error) : 0
Edge jitter error (maybe fixed) : 0
Atom jitter error (maybe fixed) : 0
Drift error (maybe fixed) : 0
Dropped bytes error (maybe fixed) : 0
Duplicated bytes error (maybe fixed) : 0

Track 06
Filename : /Volumes/Transmission/XLD OUTPUT/Zebrahead – Broadcast to the World [FLAC]/06 – Postcards From Hell.flac
/Volumes/Transmission/XLD OUTPUT/Zebrahead – Broadcast to the World [LAME MP3]/06 – Postcards From Hell.mp3

Track gain : -10.75 dB
Peak : 0.988586
CRC32 hash (test run) : D0CA23DA
CRC32 hash : D0CA23DA
CRC32 hash (skip zero) : 723ACA1D
AccurateRip signature : 3D840392
->Accurately ripped! (confidence 4)
Statistics
Read error : 0
Skipped (treated as error) : 0
Edge jitter error (maybe fixed) : 0
Atom jitter error (maybe fixed) : 0
Drift error (maybe fixed) : 0
Dropped bytes error (maybe fixed) : 0
Duplicated bytes error (maybe fixed) : 0

Track 07
Filename : /Volumes/Transmission/XLD OUTPUT/Zebrahead – Broadcast to the World [FLAC]/07 – Karma Flavored Whisky.flac
/Volumes/Transmission/XLD OUTPUT/Zebrahead – Broadcast to the World [LAME MP3]/07 – Karma Flavored Whisky.mp3

Track gain : -10.68 dB
Peak : 0.992767
CRC32 hash (test run) : 961BF6BD
CRC32 hash : 961BF6BD
CRC32 hash (skip zero) : E243B7F5
AccurateRip signature : 8B0BE120
->Accurately ripped! (confidence 4)
Statistics
Read error : 0
Skipped (treated as error) : 0
Edge jitter error (maybe fixed) : 0
Atom jitter error (maybe fixed) : 0
Drift error (maybe fixed) : 0
Dropped bytes error (maybe fixed) : 0
Duplicated bytes error (maybe fixed) : 0

Track 08
Filename : /Volumes/Transmission/XLD OUTPUT/Zebrahead – Broadcast to the World [FLAC]/08 – Here’s to You.flac
/Volumes/Transmission/XLD OUTPUT/Zebrahead – Broadcast to the World [LAME MP3]/08 – Here’s to You.mp3

Track gain : -10.10 dB
Peak : 0.989319
CRC32 hash (test run) : 2C152463
CRC32 hash : 2C152463
CRC32 hash (skip zero) : E25FD69C
AccurateRip signature : 239D968C
->Accurately ripped! (confidence 4)
Statistics
Read error : 0
Skipped (treated as error) : 0
Edge jitter error (maybe fixed) : 1
Atom jitter error (maybe fixed) : 1
Drift error (maybe fixed) : 0
Dropped bytes error (maybe fixed) : 0
Duplicated bytes error (maybe fixed) : 0

Track 09
Filename : /Volumes/Transmission/XLD OUTPUT/Zebrahead – Broadcast to the World [FLAC]/09 – Wake Me Up.flac
/Volumes/Transmission/XLD OUTPUT/Zebrahead – Broadcast to the World [LAME MP3]/09 – Wake Me Up.mp3

Track gain : -11.03 dB
Peak : 0.995544
CRC32 hash (test run) : C3A15A49
CRC32 hash : C3A15A49
CRC32 hash (skip zero) : C9DCC1FB
AccurateRip signature : 6150DF17
->Accurately ripped! (confidence 4)
Statistics
Read error : 0
Skipped (treated as error) : 0
Edge jitter error (maybe fixed) : 0
Atom jitter error (maybe fixed) : 0
Drift error (maybe fixed) : 0
Dropped bytes error (maybe fixed) : 0
Duplicated bytes error (maybe fixed) : 0

Track 10
Filename : /Volumes/Transmission/XLD OUTPUT/Zebrahead – Broadcast to the World [FLAC]/10 – Lobotomy for Dummies.flac
/Volumes/Transmission/XLD OUTPUT/Zebrahead – Broadcast to the World [LAME MP3]/10 – Lobotomy for Dummies.mp3

Track gain : -10.88 dB
Peak : 0.988556
CRC32 hash (test run) : 98DDA2AF
CRC32 hash : 98DDA2AF
CRC32 hash (skip zero) : E84A798E
AccurateRip signature : F65C67AA
->Accurately ripped! (confidence 4)
Statistics
Read error : 0
Skipped (treated as error) : 0
Edge jitter error (maybe fixed) : 0
Atom jitter error (maybe fixed) : 0
Drift error (maybe fixed) : 0
Dropped bytes error (maybe fixed) : 0
Duplicated bytes error (maybe fixed) : 0

Track 11
Filename : /Volumes/Transmission/XLD OUTPUT/Zebrahead – Broadcast to the World [FLAC]/11 – The Walking Dead.flac
/Volumes/Transmission/XLD OUTPUT/Zebrahead – Broadcast to the World [LAME MP3]/11 – The Walking Dead.mp3

Track gain : -9.91 dB
Peak : 0.988556
CRC32 hash (test run) : 89E69679
CRC32 hash : 89E69679
CRC32 hash (skip zero) : 6AFCCADA
AccurateRip signature : 73843724
->Accurately ripped! (confidence 4)
Statistics
Read error : 0
Skipped (treated as error) : 0
Edge jitter error (maybe fixed) : 0
Atom jitter error (maybe fixed) : 0
Drift error (maybe fixed) : 0
Dropped bytes error (maybe fixed) : 0
Duplicated bytes error (maybe fixed) : 0

Track 12
Filename : /Volumes/Transmission/XLD OUTPUT/Zebrahead – Broadcast to the World [FLAC]/12 – Your New Boyfriend Wears Girl Pants.flac
/Volumes/Transmission/XLD OUTPUT/Zebrahead – Broadcast to the World [LAME MP3]/12 – Your New Boyfriend Wears Girl Pants.mp3

Track gain : -10.97 dB
Peak : 0.988098
CRC32 hash (test run) : 14A43BC8
CRC32 hash : 14A43BC8
CRC32 hash (skip zero) : CAF5F7DF
AccurateRip signature : C5CD004D
->Accurately ripped! (confidence 4)
Statistics
Read error : 0
Skipped (treated as error) : 0
Edge jitter error (maybe fixed) : 0
Atom jitter error (maybe fixed) : 0
Drift error (maybe fixed) : 0
Dropped bytes error (maybe fixed) : 0
Duplicated bytes error (maybe fixed) : 0

No errors occurred

End of status report

TITLE “Broadcast to the World”
PERFORMER “Zebrahead”
REM GENRE “Alternative”
REM DATE “2006-07-11”
REM DISCNUMBER 1
REM TOTALDISCS 1
REM DISCID A409800C
FILE “01 – Broadcast to the World.wav” WAVE
TRACK 01 AUDIO
TITLE “Broadcast to the World”
INDEX 01 00:00:00
FILE “02 – Rated “U” for ugly.wav” WAVE
TRACK 02 AUDIO
TITLE “Rated “U” for ugly”
INDEX 01 00:00:00
FILE “03 – Anthem.wav” WAVE
TRACK 03 AUDIO
TITLE “Anthem”
INDEX 01 00:00:00
FILE “04 – Enemy.wav” WAVE
TRACK 04 AUDIO
TITLE “Enemy”
INDEX 01 00:00:00
FILE “05 – Back to Normal.wav” WAVE
TRACK 05 AUDIO
TITLE “Back to Normal”
INDEX 01 00:00:00
FILE “06 – Postcards From Hell.wav” WAVE
TRACK 06 AUDIO
TITLE “Postcards From Hell”
INDEX 01 00:00:00
FILE “07 – Karma Flavored Whisky.wav” WAVE
TRACK 07 AUDIO
TITLE “Karma Flavored Whisky”
INDEX 01 00:00:00
FILE “08 – Here’s to You.wav” WAVE
TRACK 08 AUDIO
TITLE “Here’s to You”
INDEX 01 00:00:00
FILE “09 – Wake Me Up.wav” WAVE
TRACK 09 AUDIO
TITLE “Wake Me Up”
INDEX 01 00:00:00
FILE “10 – Lobotomy for Dummies.wav” WAVE
TRACK 10 AUDIO
TITLE “Lobotomy for Dummies”
INDEX 01 00:00:00
FILE “11 – The Walking Dead.wav” WAVE
TRACK 11 AUDIO
TITLE “The Walking Dead”
INDEX 01 00:00:00
FILE “12 – Your New Boyfriend Wears Girl Pants.wav” WAVE
TRACK 12 AUDIO
TITLE “Your New Boyfriend Wears Girl Pants”
INDEX 01 00:00:00


Leave a Reply

Your email address will not be published. Required fields are marked *

This site uses Akismet to reduce spam. Learn how your comment data is processed.