Zebrahead – Broadcast To The World (Japanese Edition)




No Cover available

Artist: Zebrahead
Year: 2006
Genre: Punk
Notes: Discogs
Add. Notes: Japanese Edition
Watch Songs on: YouTube
Cover incl.: Yes
Encoder: FLAC
Bitrate: ~1100 kBit/s (44.1 kHz/16 Bit/s)
Log & Cue incl.: Yes/Yes
Size: 365,1 MB
Password: “slam” (without ” “)


All Downloads/Hosters are compatible

Download 1
KatFile.com
Turbobit.net
Rapidgator.net
FileFactory.com
Download 2
KatFile.com
Turbobit.net
Rapidgator.net
FileFactory.com

Tracklist:

1 Broadcast To The World 3:17
2 Rated "U" For Ugly 3:02
3 Anthem 3:33
4 Enemy 2:56
5 Back To Normal 3:40
6 Postcards From Hell 2:45
7 Karma Flavored Whiskey 4:08
8 Here's To You 3:07
9 Wake Me Up 3:50
10 Lobotomy For Dummies 2:36
11 The Walking Dead 3:10
12 Your New Boyfriend Wears Girl Pants 4:28

Bonus Japan Only!
13 Riot Girl 3:18
14a Down In Flames 2:59
14b Silence 1:20
14c Get On The Bus 1:16
14d Silence 1:00
14e Hit It Again 0:44

EAC-Log, CUE-Sheed & NFO:

Click to open spoiler
Exact Audio Copy V0.99 prebeta 3 from 28. July 2007

EAC extraction logfile from 4. July 2008, 19:19

ZEBRAHEAD / Broadcast to the World

Used drive : _NEC DVD_RW ND-3500AG Adapter: 0 ID: 0

Read mode : Burst

Read offset correction : 48
Overread into Lead-In and Lead-Out : No
Fill up missing offset samples with silence : Yes
Delete leading and trailing silent blocks : No
Null samples used in CRC calculations : Yes
Used interface : Native Win32 interface for Win NT & 2000
Gap handling : Appended to previous track

Used output format : User Defined Encoder
Selected bitrate : 128 kBit/s
Quality : High
Add ID3 tag : No
Command line compressor : C:\Program Files\FLAC\flac.exe
Additional command line options : -V -8 -T \”artist=%a\” -T \”title=%t\” -T \”album=%g\” -T \”date=%y\” -T \”tracknumber=%n\” -T \”genre=%m\” %s

TOC of the extracted CD

Track | Start | Length | Start sector | End sector
———————————————————
1 | 0:00.00 | 3:16.54 | 0 | 14753
2 | 3:16.54 | 3:01.61 | 14754 | 28389
3 | 6:18.40 | 3:33.19 | 28390 | 44383
4 | 9:51.59 | 2:56.17 | 44384 | 57600
5 | 12:48.01 | 3:40.26 | 57601 | 74126
6 | 16:28.27 | 2:45.22 | 74127 | 86523
7 | 19:13.49 | 4:07.58 | 86524 | 105106
8 | 23:21.32 | 3:07.14 | 105107 | 119145
9 | 26:28.46 | 3:49.44 | 119146 | 136364
10 | 30:18.15 | 2:36.47 | 136365 | 148111
11 | 32:54.62 | 3:09.54 | 148112 | 162340
12 | 36:04.41 | 4:27.01 | 162341 | 182366
13 | 40:31.42 | 3:17.70 | 182367 | 197211
14 | 43:49.37 | 7:20.44 | 197212 | 230255

Track 1

Filename C:\Documents and Settings\Andrew\Desktop\Zebrahead – Broadcast To The World [Japan] FLAC\01 – Broadcast To The World.wav

Pre-gap length 0:00:02.00

Peak level 98.8 %
Test CRC 9CFCF3CA
Copy CRC 9CFCF3CA
Track not present in AccurateRip database
Copy OK

Track 2

Filename C:\Documents and Settings\Andrew\Desktop\Zebrahead – Broadcast To The World [Japan] FLAC\02 – Rated ‘U’ For Ugly.wav

Pre-gap length 0:00:00.01

Peak level 98.8 %
Test CRC 0D70A7F2
Copy CRC 0D70A7F2
Track not present in AccurateRip database
Copy OK

Track 3

Filename C:\Documents and Settings\Andrew\Desktop\Zebrahead – Broadcast To The World [Japan] FLAC\03 – Anthem.wav

Peak level 98.8 %
Test CRC A4106ED4
Copy CRC A4106ED4
Track not present in AccurateRip database
Copy OK

Track 4

Filename C:\Documents and Settings\Andrew\Desktop\Zebrahead – Broadcast To The World [Japan] FLAC\04 – Enemy.wav

Peak level 99.0 %
Test CRC B69D9CD5
Copy CRC B69D9CD5
Track not present in AccurateRip database
Copy OK

Track 5

Filename C:\Documents and Settings\Andrew\Desktop\Zebrahead – Broadcast To The World [Japan] FLAC\05 – Back To Normal.wav

Peak level 98.8 %
Test CRC EBDD6571
Copy CRC EBDD6571
Track not present in AccurateRip database
Copy OK

Track 6

Filename C:\Documents and Settings\Andrew\Desktop\Zebrahead – Broadcast To The World [Japan] FLAC\06 – Postcards From Hell.wav

Peak level 98.8 %
Test CRC 7862BFB6
Copy CRC 7862BFB6
Track not present in AccurateRip database
Copy OK

Track 7

Filename C:\Documents and Settings\Andrew\Desktop\Zebrahead – Broadcast To The World [Japan] FLAC\07 – Karma Flavored Whisky.wav

Pre-gap length 0:00:00.02

Peak level 99.2 %
Test CRC 4FF59AA0
Copy CRC 4FF59AA0
Track not present in AccurateRip database
Copy OK

Track 8

Filename C:\Documents and Settings\Andrew\Desktop\Zebrahead – Broadcast To The World [Japan] FLAC\08 – Here’s To You.wav

Peak level 98.9 %
Test CRC 201632C4
Copy CRC 201632C4
Track not present in AccurateRip database
Copy OK

Track 9

Filename C:\Documents and Settings\Andrew\Desktop\Zebrahead – Broadcast To The World [Japan] FLAC\09 – Wake Me Up.wav

Peak level 99.5 %
Test CRC 6042DA80
Copy CRC 6042DA80
Track not present in AccurateRip database
Copy OK

Track 10

Filename C:\Documents and Settings\Andrew\Desktop\Zebrahead – Broadcast To The World [Japan] FLAC\10 – Lobotomy For Dummies.wav

Peak level 98.8 %
Test CRC 7C0EE4E5
Copy CRC 7C0EE4E5
Track not present in AccurateRip database
Copy OK

Track 11

Filename C:\Documents and Settings\Andrew\Desktop\Zebrahead – Broadcast To The World [Japan] FLAC\11 – The Walking Dead.wav

Pre-gap length 0:00:00.03

Peak level 98.8 %
Test CRC F71EC7BE
Copy CRC F71EC7BE
Track not present in AccurateRip database
Copy OK

Track 12

Filename C:\Documents and Settings\Andrew\Desktop\Zebrahead – Broadcast To The World [Japan] FLAC\12 – Your New Boyfriends Wears Girl Pants.wav

Pre-gap length 0:00:00.04

Peak level 98.8 %
Test CRC F92F79A5
Copy CRC F92F79A5
Track not present in AccurateRip database
Copy OK

Track 13

Filename C:\Documents and Settings\Andrew\Desktop\Zebrahead – Broadcast To The World [Japan] FLAC\13 – Riot Girl.wav

Peak level 99.8 %
Test CRC 0090C85B
Copy CRC 0090C85B
Track not present in AccurateRip database
Copy OK

Track 14

Filename C:\Documents and Settings\Andrew\Desktop\Zebrahead – Broadcast To The World [Japan] FLAC\14 – Down In Flames.wav

Peak level 98.8 %
Test CRC E9B29F4D
Copy CRC E9B29F4D
Track not present in AccurateRip database
Copy OK

None of the tracks are present in the AccurateRip database

No errors occurred

End of status report

REM GENRE “Punk Rock”
REM DATE 2006
REM DISCID BC0BFE0E
REM COMMENT “ExactAudioCopy v0.99pb3”
PERFORMER “ZEBRAHEAD”
TITLE “Broadcast to the World”
FILE “01 – Broadcast To The World.wav” WAVE
TRACK 01 AUDIO
TITLE “Broadcast To The World”
PERFORMER “ZEBRAHEAD”
INDEX 01 00:00:00
TRACK 02 AUDIO
TITLE “Rated ‘U’ For Ugly”
PERFORMER “ZEBRAHEAD”
INDEX 00 03:16:53
FILE “02 – Rated ‘U’ For Ugly.wav” WAVE
INDEX 01 00:00:00
FILE “03 – Anthem.wav” WAVE
TRACK 03 AUDIO
TITLE “Anthem”
PERFORMER “ZEBRAHEAD”
INDEX 01 00:00:00
FILE “04 – Enemy.wav” WAVE
TRACK 04 AUDIO
TITLE “Enemy”
PERFORMER “ZEBRAHEAD”
INDEX 01 00:00:00
FILE “05 – Back To Normal.wav” WAVE
TRACK 05 AUDIO
TITLE “Back To Normal”
PERFORMER “ZEBRAHEAD”
INDEX 01 00:00:00
FILE “06 – Postcards From Hell.wav” WAVE
TRACK 06 AUDIO
TITLE “Postcards From Hell”
PERFORMER “ZEBRAHEAD”
INDEX 01 00:00:00
TRACK 07 AUDIO
TITLE “Karma Flavored Whisky”
PERFORMER “ZEBRAHEAD”
INDEX 00 02:45:20
FILE “07 – Karma Flavored Whisky.wav” WAVE
INDEX 01 00:00:00
FILE “08 – Here’s To You.wav” WAVE
TRACK 08 AUDIO
TITLE “Here’s To You”
PERFORMER “ZEBRAHEAD”
INDEX 01 00:00:00
FILE “09 – Wake Me Up.wav” WAVE
TRACK 09 AUDIO
TITLE “Wake Me Up”
PERFORMER “ZEBRAHEAD”
INDEX 01 00:00:00
FILE “10 – Lobotomy For Dummies.wav” WAVE
TRACK 10 AUDIO
TITLE “Lobotomy For Dummies”
PERFORMER “ZEBRAHEAD”
INDEX 01 00:00:00
TRACK 11 AUDIO
TITLE “The Walking Dead”
PERFORMER “ZEBRAHEAD”
INDEX 00 02:36:44
FILE “11 – The Walking Dead.wav” WAVE
INDEX 01 00:00:00
TRACK 12 AUDIO
TITLE “Your New Boyfriends Wears Girl Pants”
PERFORMER “ZEBRAHEAD”
INDEX 00 03:09:50
FILE “12 – Your New Boyfriends Wears Girl Pants.wav” WAVE
INDEX 01 00:00:00
FILE “13 – Riot Girl.wav” WAVE
TRACK 13 AUDIO
TITLE “Riot Girl”
PERFORMER “ZEBRAHEAD”
INDEX 01 00:00:00
FILE “14 – Down In Flames.wav” WAVE
TRACK 14 AUDIO
TITLE “Down In Flames”
PERFORMER “ZEBRAHEAD”
INDEX 01 00:00:00


Leave a Reply

Your email address will not be published. Required fields are marked *

Enter the text from the image below
 

This site uses Akismet to reduce spam. Learn how your comment data is processed.