Ymyrgar – Where the Oak Drowns Its Roots




No Cover available


Artist: Ymyrgar
Year: 2020
Genre: Metal
Notes: Discogs
Add. Notes:
Watch Songs on: YouTube
Cover incl.: Yes
Encoder: FLAC
Bitrate: ~800 kBit/s (44.1 kHz/16 Bit/s)
Log & Cue incl.: Yes/Yes
Size: 523,1 MB
Password: “slam” (without ” “)


All Downloads/Hosters are compatible

Download 1
KatFile.com
Turbobit.net
Rapidgator.net
FileFactory.com
Download 2
KatFile.com
Turbobit.net
Rapidgator.net
FileFactory.com

Tracklist:

01 - Heima (00:02:51)
02 - For Whome Blood Shall Be Shed (00:08:21)
03 - Of Blood and Flesh (00:11:11)
04 - Tales of the Forest (00:08:58)
05 - Of Forces Unknown (00:06:00)
06 - Filthy Road to Dumbness (00:06:55)
07 - Beyond Utgard's Wall (00:06:25)
08 - Hel (00:02:14)
09 - Throne of the Damned (00:08:39)
10 - Eldur (00:01:26)
11 - By the Ardent Blade (00:05:52)
12 - The Frozen Abyss (00:05:41)
13 - As Days Go By (00:04:18)

EAC-Log, CUE-Sheed & NFO:

Click to open spoiler
foobar2000 1.3.9 / Замер динамического диапазона (DR) 1.1.1
Дата отчёта: 2020-02-21 08:57:33

——————————————————————————–
Анализ: Ymyrgar / Where the Oak Drowns Its Roots
——————————————————————————–

DR Пики RMS Продолжительность трека
——————————————————————————–
DR7 -0.31 дБ -10.32 дБ 2:51 01-Heima
DR7 -0.31 дБ -8.26 дБ 8:21 02-For Whome Blood Shall Be Shed
DR7 -0.31 дБ -8.95 дБ 11:12 03-Of Blood and Flesh
DR7 -0.30 дБ -9.31 дБ 8:58 04-Tales of the Forest
DR7 -0.31 дБ -9.03 дБ 6:01 05-Of Forces Unknown
DR7 -0.31 дБ -8.91 дБ 6:56 06-Filthy Road to Dumbness
DR6 -0.31 дБ -8.73 дБ 6:26 07-Beyond Utgard’s Wall
DR8 -0.38 дБ -12.80 дБ 2:15 08-Hel
DR7 -0.31 дБ -9.37 дБ 8:39 09-Throne of the Damned
DR6 -0.31 дБ -8.63 дБ 1:27 10-Eldur
DR7 -0.30 дБ -8.19 дБ 5:53 11-By the Ardent Blade
DR7 -0.31 дБ -8.62 дБ 5:41 12-The Frozen Abyss
DR7 -0.30 дБ -10.28 дБ 4:18 13-As Days Go By
——————————————————————————–

Количество треков: 13
Реальные значения DR: DR7

Частота: 44100 Гц
Каналов: 2
Разрядность: 16
Битрейт: 821 кбит/с
Кодек: FLAC
================================================================================
[свернуть]
• Лог проверки качества •
———————–

DON’T MODIFY THIS FILE

———————–

PERFORMER: auCDtect Task Manager, ver. 1.5.1RC3 build 1.5.1.4
Copyright (c) 2008-2010 y-soft. All rights reserved
http://y-soft.org

ANALYZER: auCDtect: CD records authenticity detector, version 0.8.2
Copyright (c) 2004 Oleg Berngardt. All rights reserved.
Copyright (c) 2004 Alexander Djourik. All rights reserved.

FILE: 13 – As Days Go By.flac
Size: 26541205 Hash: 7921BEBACA0276795614E75DFA771E87 Accuracy: -m8
Conclusion: CDDA 100%
Signature: 86234177C341A84A96E53981841C81BA467DBA49
FILE: 12 – The Frozen Abyss.flac
Size: 40536465 Hash: 3F1FA6F372095FBEB7414ADD5691EB9B Accuracy: -m8
Conclusion: CDDA 100%
Signature: 6D5775B4362C0F736AA5B640833BD6D0457E263C
FILE: 11 – By the Ardent Blade.flac
Size: 43839532 Hash: 7C64A181B48C0C56320DB5208B877668 Accuracy: -m8
Conclusion: CDDA 100%
Signature: C5DAB6393A22A2632B4AA47C2E79ED41B330F24D
FILE: 10 – Eldur.flac
Size: 8830460 Hash: 772B26B7D047F3340ABE20EF75B493B5 Accuracy: -m8
Conclusion: CDDA 100%
Signature: 7C3BC6DD7E612242B2BFBCAB29F244F51ED24AD0
FILE: 09 – Throne of the Damned.flac
Size: 58754747 Hash: 3D21DDA4F01DCEA8FE833367D94C0844 Accuracy: -m8
Conclusion: CDDA 100%
Signature: 1CBBB9DF071A65DABA5A384F9792517B4EE9EBFD
FILE: 08 – Hel.flac
Size: 10919727 Hash: 00C39D0F9E63C95A2CB7CF47371C35CB Accuracy: -m8
Conclusion: MPEG 90%
Signature: 664FFD37C753F421FCFB6E28F58DE2ED8A4C158E
FILE: 07 – Beyond Utgard’s Wall.flac
Size: 46466294 Hash: AD4F26EFC0BF456D65E7512CAD30E947 Accuracy: -m8
Conclusion: CDDA 100%
Signature: AF02F79C8028B7E5403CBA0686FC7CC8EE44365D
FILE: 06 – Filthy Road to Dumbness.flac
Size: 48642214 Hash: DA5F6B64D7F6A2E8200F002BFB9C0488 Accuracy: -m8
Conclusion: CDDA 99%
Signature: 9C73977F492D164DFB5A4A9F8F696EE74DBB9630
FILE: 05 – Of Forces Unknown.flac
Size: 43435381 Hash: B760C3DC58728C39F8B0DAAB375DFA83 Accuracy: -m8
Conclusion: CDDA 100%
Signature: 5AFCE0D6508F0243867BE54622028881CE38D48C
FILE: 04 – Tales of the Forest.flac
Size: 61206967 Hash: 014E12FEED28C010D669D0C97C1377CC Accuracy: -m8
Conclusion: CDDA 99%
Signature: 1498A38658BCBC6DB2B8FC147D9C2EB71C4A3249
FILE: 03 – Of Blood and Flesh.flac
Size: 79953644 Hash: 323CB7CFEA10A4025F95366A79C35299 Accuracy: -m8
Conclusion: CDDA 99%
Signature: C49B048DCDC4E7CBA029F29F6935B389B156A2FA
FILE: 02 – For Whome Blood Shall Be Shed.flac
Size: 61038383 Hash: 37A8E43841312E1ED0F7E6F1853C8270 Accuracy: -m8
Conclusion: CDDA 100%
Signature: 594D7EC20494B86DF12442C631AC59DD80A78615
FILE: 01 – Heima.flac
Size: 17574009 Hash: 4C9EB300F8EDB6F7E3EF917C007B2C53 Accuracy: -m8
Conclusion: CDDA 100%
Signature: 1598B204311F46B59A1DF50FD0CF9C1E0A5E21FD


0

Publication author

offline 7 days

Chaos

3
Comments: 4Publics: 3565Registration: 02-02-2019
Spread the Download

Leave a Reply

Your email address will not be published. Required fields are marked *

Enter the text from the image below
 

This site uses Akismet to reduce spam. Learn how your comment data is processed.