Yes – Close to the Edge (Japanese Edition)




Artist: Yes
Year: 1972
Genre: Rock
Notes: Discogs
Add. Notes: Japanese Edition
Cover incl.: Yes
Encoder: FLAC
Bitrate: ~3000 kBit/s (96 kHz/24 Bit/s)
Log & Cue incl.: Yes
Size: 794,25 MB
Password: “slam” (without ” “)


All Downloads/Hosters are compatible

Download 1
Turbobit.net
KatFile.com
Rapidgator.net
ddl.to
Download 2
Turbobit.net
KatFile.com
Rapidgator.net
ddl.to

Tracklist:

1 - Close To The Edge - 18:50
2 - And You And I - 10:09
3 - Siberian Khatru - 8:57

EAC-Log, CUE-Sheed & NFO:

Click to open spoiler
REM DATE 1972
REM GENRE “Art Rock”
REM COMMENT “an0, Ex Atlantic P-10116A JP reissue 1976 – JVC QL-F6 + Ortofon 2m black – Philips – Echo Indigo IO”
TITLE “Close to the Edge”
PERFORMER “Yes”
FILE “Yes – 1972 – Close to the Edge.flac” WAVE
TRACK 01 AUDIO
TITLE “Close to the Edge”
INDEX 01 00:00:00
TRACK 01 AUDIO
TITLE “And You and I”
INDEX 01 18:41:00
TRACK 01 AUDIO
TITLE “Siberian Khatru”
INDEX 01 28:52:00

Leave a Reply

Your email address will not be published. Required fields are marked *

This site uses Akismet to reduce spam. Learn how your comment data is processed.