Yellowcard – Where We Stand




No Cover available

Artist: Yellowcard
Year: 1999
Genre: Hardcore
Notes: Discogs
Add. Notes:
Watch Songs on: YouTube
Cover incl.: No
Encoder: FLAC
Bitrate: ~1000 kBit/s (44.1 kHz/16 Bit/s)
Log & Cue incl.: Yes/Yes
Size: 238,1 MB
Password: “slam” (without ” “)


All Downloads/Hosters are compatible

Download 1
KatFile.com
Turbobit.net
Rapidgator.net
FileFactory.com
Download 2
KatFile.com
Turbobit.net
Rapidgator.net
FileFactory.com

Tracklist:

1 Lesson Learned 3:22
2 Time Will Tell 3:58
3 Sue 2:24
4 April 20th 2:55
5 Uphill Both Ways 3:58
6 Kids 2:42
7 Doesn't Matter 2:54
8 Sorry Try Again 1:44
9 Anywhere But Here 3:13
10 On The Brink 7:26

EAC-Log, CUE-Sheed & NFO:

Click to open spoiler
Exact Audio Copy V0.99 prebeta 4 from 23. January 2008

EAC extraction logfile from 19. May 2008, 16:15

Yellowcard / Where We Stand

Used drive : TSSTcorpDVD+-RW TS-L632D Adapter: 1 ID: 0

Read mode : Secure
Utilize accurate stream : Yes
Defeat audio cache : Yes
Make use of C2 pointers : No

Read offset correction : 6
Overread into Lead-In and Lead-Out : No
Fill up missing offset samples with silence : Yes
Delete leading and trailing silent blocks : No
Null samples used in CRC calculations : Yes
Used interface : Native Win32 interface for Win NT & 2000
Gap handling : Appended to previous track

Used output format : User Defined Encoder
Selected bitrate : 128 kBit/s
Quality : High
Add ID3 tag : No
Command line compressor : Z:\Programs\FLAC\flac.exe
Additional command line options : -V -8 -T \”artist=%a\” -T \”title=%t\” -T \”album=%g\” -T \”date=%y\” -T \”tracknumber=%n\” -T \”genre=%m\” %s

TOC of the extracted CD

Track | Start | Length | Start sector | End sector
———————————————————
1 | 0:00.00 | 3:22.73 | 0 | 15222
2 | 3:22.73 | 3:58.03 | 15223 | 33075
3 | 7:21.01 | 2:24.29 | 33076 | 43904
4 | 9:45.30 | 2:55.45 | 43905 | 57074
5 | 12:41.00 | 3:58.36 | 57075 | 74960
6 | 16:39.36 | 2:42.69 | 74961 | 87179
7 | 19:22.30 | 2:54.25 | 87180 | 100254
8 | 22:16.55 | 1:44.44 | 100255 | 108098
9 | 24:01.24 | 3:13.22 | 108099 | 122595
10 | 27:14.46 | 7:26.73 | 122596 | 156118

Track 1

Filename Z:\My Documents\Torrent Files\Yellowcard – Where We Stand (FLAC)\Yellowcard\Where We Stand\01 – Lesson Learned.wav

Pre-gap length 0:00:02.00

Peak level 100.0 %
Track quality 100.0 %
Test CRC A7D3E415
Copy CRC A7D3E415
Copy OK

Track 2

Filename Z:\My Documents\Torrent Files\Yellowcard – Where We Stand (FLAC)\Yellowcard\Where We Stand\02 – Time Will Tell.wav

Pre-gap length 0:00:02.00

Peak level 100.0 %
Track quality 100.0 %
Test CRC 47179729
Copy CRC 47179729
Copy OK

Track 3

Filename Z:\My Documents\Torrent Files\Yellowcard – Where We Stand (FLAC)\Yellowcard\Where We Stand\03 – Sue.wav

Pre-gap length 0:00:02.00

Peak level 100.0 %
Track quality 100.0 %
Test CRC BCE74851
Copy CRC BCE74851
Copy OK

Track 4

Filename Z:\My Documents\Torrent Files\Yellowcard – Where We Stand (FLAC)\Yellowcard\Where We Stand\04 – April 20th.wav

Peak level 100.0 %
Track quality 100.0 %
Test CRC 18BB764C
Copy CRC 18BB764C
Copy OK

Track 5

Filename Z:\My Documents\Torrent Files\Yellowcard – Where We Stand (FLAC)\Yellowcard\Where We Stand\05 – Uphill Both Ways.wav

Pre-gap length 0:00:02.00

Peak level 100.0 %
Track quality 100.0 %
Test CRC 57B2D43B
Copy CRC 57B2D43B
Copy OK

Track 6

Filename Z:\My Documents\Torrent Files\Yellowcard – Where We Stand (FLAC)\Yellowcard\Where We Stand\06 – Kids.wav

Pre-gap length 0:00:01.00

Peak level 100.0 %
Track quality 100.0 %
Test CRC F1ADDFB3
Copy CRC F1ADDFB3
Copy OK

Track 7

Filename Z:\My Documents\Torrent Files\Yellowcard – Where We Stand (FLAC)\Yellowcard\Where We Stand\07 – Doesnt Matter.wav

Pre-gap length 0:00:00.01

Peak level 99.9 %
Track quality 99.9 %
Test CRC 068FD51D
Copy CRC 068FD51D
Copy OK

Track 8

Filename Z:\My Documents\Torrent Files\Yellowcard – Where We Stand (FLAC)\Yellowcard\Where We Stand\08 – Sorry Try Again.wav

Pre-gap length 0:00:00.01

Peak level 100.0 %
Track quality 99.8 %
Test CRC 5D96FF03
Copy CRC 5D96FF03
Copy OK

Track 9

Filename Z:\My Documents\Torrent Files\Yellowcard – Where We Stand (FLAC)\Yellowcard\Where We Stand\09 – Anywhere but Here.wav

Pre-gap length 0:00:01.00

Peak level 100.0 %
Track quality 100.0 %
Test CRC FAF42435
Copy CRC FAF42435
Copy OK

Track 10

Filename Z:\My Documents\Torrent Files\Yellowcard – Where We Stand (FLAC)\Yellowcard\Where We Stand\10 – On the Brink.wav

Pre-gap length 0:00:02.00

Peak level 100.0 %
Track quality 99.9 %
Test CRC 83E26FFB
Copy CRC 83E26FFB
Copy OK

No errors occurred

End of status report

REM DISCID 7008210A
REM COMMENT “ExactAudioCopy v0.99pb4”
PERFORMER “Unknown Artist”
TITLE “Unknown Title”
FILE “Unknown Artist\Unknown Title\01 – Track01.wav” WAVE
TRACK 01 AUDIO
TITLE “Track01”
PERFORMER “Unknown Artist”
INDEX 01 00:00:00
TRACK 02 AUDIO
TITLE “Track02”
PERFORMER “Unknown Artist”
INDEX 00 03:20:73
FILE “Unknown Artist\Unknown Title\02 – Track02.wav” WAVE
INDEX 01 00:00:00
TRACK 03 AUDIO
TITLE “Track03”
PERFORMER “Unknown Artist”
INDEX 00 03:56:03
FILE “Unknown Artist\Unknown Title\03 – Track03.wav” WAVE
INDEX 01 00:00:00
FILE “Unknown Artist\Unknown Title\04 – Track04.wav” WAVE
TRACK 04 AUDIO
TITLE “Track04”
PERFORMER “Unknown Artist”
INDEX 01 00:00:00
TRACK 05 AUDIO
TITLE “Track05”
PERFORMER “Unknown Artist”
INDEX 00 02:53:45
FILE “Unknown Artist\Unknown Title\05 – Track05.wav” WAVE
INDEX 01 00:00:00
TRACK 06 AUDIO
TITLE “Track06”
PERFORMER “Unknown Artist”
INDEX 00 03:57:36
FILE “Unknown Artist\Unknown Title\06 – Track06.wav” WAVE
INDEX 01 00:00:00
TRACK 07 AUDIO
TITLE “Track07”
PERFORMER “Unknown Artist”
INDEX 00 02:42:68
FILE “Unknown Artist\Unknown Title\07 – Track07.wav” WAVE
INDEX 01 00:00:00
TRACK 08 AUDIO
TITLE “Track08”
PERFORMER “Unknown Artist”
INDEX 00 02:54:24
FILE “Unknown Artist\Unknown Title\08 – Track08.wav” WAVE
INDEX 01 00:00:00
TRACK 09 AUDIO
TITLE “Track09”
PERFORMER “Unknown Artist”
INDEX 00 01:43:44
FILE “Unknown Artist\Unknown Title\09 – Track09.wav” WAVE
INDEX 01 00:00:00
TRACK 10 AUDIO
TITLE “Track10”
PERFORMER “Unknown Artist”
INDEX 00 03:11:22
FILE “Unknown Artist\Unknown Title\10 – Track10.wav” WAVE
INDEX 01 00:00:00


Leave a Reply

Your email address will not be published. Required fields are marked *

Enter the text from the image below
 

This site uses Akismet to reduce spam. Learn how your comment data is processed.