Yellowcard – When You’re Through Thinking, Say Yes




No Cover available

Artist: Yellowcard
Year: 2011
Genre: Punk
Notes: Discogs
Add. Notes:
Watch Songs on: YouTube
Cover incl.: No
Encoder: FLAC
Bitrate: ~1000 kBit/s (44.1 kHz/16 Bit/s)
Log & Cue incl.: Yes/Yes
Size: 268 MB
Password: “slam” (without ” “)


All Downloads/Hosters are compatible

Download 1
KatFile.com
Turbobit.net
Rapidgator.net
FileFactory.com
Download 2
KatFile.com
Turbobit.net
Rapidgator.net
FileFactory.com

Tracklist:

1 The Sound Of You And Me 4:36
2 For You, And Your Denial 3:33
3 With You Around 3:01
4 Hang You Up 4:02
5 Life Of Leaving Home 3:24
6 Hide 3:12
7 Soundtrack 3:35
8 Sing For Me 3:54
9 See Me Smiling 3:50
10 Be The Young 3:56

EAC-Log, CUE-Sheed & NFO:

Click to open spoiler
Exact Audio Copy V0.99 prebeta 5 from 4. May 2009

EAC extraction logfile from 21. March 2011, 13:39

Yellowcard / When You’re Through Thinking Say Yes

Used drive : TSSTcorpCDDVDW SH-S223L Adapter: 3 ID: 0

Read mode : Secure
Utilize accurate stream : Yes
Defeat audio cache : Yes
Make use of C2 pointers : No

Read offset correction : 6
Overread into Lead-In and Lead-Out : No
Fill up missing offset samples with silence : Yes
Delete leading and trailing silent blocks : No
Null samples used in CRC calculations : Yes
Used interface : Native Win32 interface for Win NT & 2000
Gap handling : Not detected, thus appended to previous track

Used output format : User Defined Encoder
Selected bitrate : 320 kBit/s
Quality : High
Add ID3 tag : No
Command line compressor : C:\Program Files (x86)\Exact Audio Copy\FLAC\FLAC.EXE
Additional command line options : -V -8 -T “artist=%a” -T “title=%t” -T “album=%g” -T “date=%y” -T “tracknumber=%n” -T “genre=%m” %s

TOC of the extracted CD

Track | Start | Length | Start sector | End sector
———————————————————
1 | 0:00.00 | 4:36.07 | 0 | 20706
2 | 4:36.07 | 3:33.67 | 20707 | 36748
3 | 8:09.74 | 3:01.59 | 36749 | 50382
4 | 11:11.58 | 4:02.68 | 50383 | 68600
5 | 15:14.51 | 3:24.14 | 68601 | 83914
6 | 18:38.65 | 3:12.74 | 83915 | 98388
7 | 21:51.64 | 3:35.53 | 98389 | 114566
8 | 25:27.42 | 3:54.07 | 114567 | 132123
9 | 29:21.49 | 3:50.56 | 132124 | 149429
10 | 33:12.30 | 3:56.72 | 149430 | 167201

Track 1

Filename D:\Rips\Yellowcard – 2011 -When You’re Through Thinking Say Yes\01 – Track01.wav

Copy aborted

Track 2

Copy aborted

Track 3

Copy aborted

Track 4

Copy aborted

Track 5

Copy aborted

Track 6

Copy aborted

Track 7

Copy aborted

Track 8

Copy aborted

Track 9

Copy aborted

Track 10

Copy aborted

No tracks could be verified as accurate

There were errors

End of status report

————————————————————

Exact Audio Copy V0.99 prebeta 5 from 4. May 2009

EAC extraction logfile from 21. March 2011, 18:26

Yellowcard / When You’re Through Thinking Say Yes

Used drive : TSSTcorpCDDVDW SH-S223L Adapter: 3 ID: 0

Read mode : Secure
Utilize accurate stream : Yes
Defeat audio cache : Yes
Make use of C2 pointers : No

Read offset correction : 6
Overread into Lead-In and Lead-Out : No
Fill up missing offset samples with silence : Yes
Delete leading and trailing silent blocks : No
Null samples used in CRC calculations : Yes
Used interface : Native Win32 interface for Win NT & 2000
Gap handling : Appended to previous track

Used output format : User Defined Encoder
Selected bitrate : 320 kBit/s
Quality : High
Add ID3 tag : No
Command line compressor : C:\Program Files (x86)\Exact Audio Copy\FLAC\FLAC.EXE
Additional command line options : -V -8 -T “artist=%a” -T “title=%t” -T “album=%g” -T “date=%y” -T “tracknumber=%n” -T “genre=%m” %s

TOC of the extracted CD

Track | Start | Length | Start sector | End sector
———————————————————
1 | 0:00.00 | 4:36.07 | 0 | 20706
2 | 4:36.07 | 3:33.67 | 20707 | 36748
3 | 8:09.74 | 3:01.59 | 36749 | 50382
4 | 11:11.58 | 4:02.68 | 50383 | 68600
5 | 15:14.51 | 3:24.14 | 68601 | 83914
6 | 18:38.65 | 3:12.74 | 83915 | 98388
7 | 21:51.64 | 3:35.53 | 98389 | 114566
8 | 25:27.42 | 3:54.07 | 114567 | 132123
9 | 29:21.49 | 3:50.56 | 132124 | 149429
10 | 33:12.30 | 3:56.72 | 149430 | 167201

Track 1

Filename D:\Rips\Yellowcard – 2011 -When You’re Through Thinking Say Yes\01 – Track01.wav

Pre-gap length 0:00:02.00

Copy aborted

Track 2

Filename D:\Rips\Yellowcard – 2011 -When You’re Through Thinking Say Yes\02 – Track02.wav

Copy aborted

Track 3

Copy aborted

Track 4

Copy aborted

Track 5

Copy aborted

Track 6

Copy aborted

Track 7

Copy aborted

Track 8

Copy aborted

Track 9

Copy aborted

Track 10

Copy aborted

1 track(s) not fully ripped for AccurateRip lookup
9 track(s) canceled

No tracks could be verified as accurate

There were errors

End of status report

————————————————————

Exact Audio Copy V0.99 prebeta 5 from 4. May 2009

EAC extraction logfile from 21. March 2011, 19:09

Yellowcard / When You’re Through Thinking Say Yes

Used drive : TSSTcorpCDDVDW SH-S223L Adapter: 3 ID: 0

Read mode : Secure
Utilize accurate stream : Yes
Defeat audio cache : Yes
Make use of C2 pointers : No

Read offset correction : 6
Overread into Lead-In and Lead-Out : No
Fill up missing offset samples with silence : Yes
Delete leading and trailing silent blocks : No
Null samples used in CRC calculations : Yes
Used interface : Native Win32 interface for Win NT & 2000
Gap handling : Appended to previous track

Used output format : User Defined Encoder
Selected bitrate : 320 kBit/s
Quality : High
Add ID3 tag : No
Command line compressor : C:\Program Files (x86)\Exact Audio Copy\FLAC\FLAC.EXE
Additional command line options : -V -8 -T “artist=%a” -T “title=%t” -T “album=%g” -T “date=%y” -T “tracknumber=%n” -T “genre=%m” %s

TOC of the extracted CD

Track | Start | Length | Start sector | End sector
———————————————————
1 | 0:00.00 | 4:36.07 | 0 | 20706
2 | 4:36.07 | 3:33.67 | 20707 | 36748
3 | 8:09.74 | 3:01.59 | 36749 | 50382
4 | 11:11.58 | 4:02.68 | 50383 | 68600
5 | 15:14.51 | 3:24.14 | 68601 | 83914
6 | 18:38.65 | 3:12.74 | 83915 | 98388
7 | 21:51.64 | 3:35.53 | 98389 | 114566
8 | 25:27.42 | 3:54.07 | 114567 | 132123
9 | 29:21.49 | 3:50.56 | 132124 | 149429
10 | 33:12.30 | 3:56.72 | 149430 | 167201

Track 1

Filename D:\Rips\Yellowcard – 2011 -When You’re Through Thinking Say Yes\01 – The Sound of You and Me.wav

Pre-gap length 0:00:02.00

Peak level 100.0 %
Track quality 100.0 %
Test CRC 0D3BF6F3
Copy CRC 0D3BF6F3
Track not present in AccurateRip database
Copy OK

Track 2

Filename D:\Rips\Yellowcard – 2011 -When You’re Through Thinking Say Yes\02 – For You, and Your Denial.wav

Peak level 100.0 %
Track quality 100.0 %
Test CRC DF67D49E
Copy CRC DF67D49E
Track not present in AccurateRip database
Copy OK

Track 3

Filename D:\Rips\Yellowcard – 2011 -When You’re Through Thinking Say Yes\03 – With You Around.wav

Peak level 100.0 %
Track quality 100.0 %
Test CRC E0C0F0E0
Copy CRC E0C0F0E0
Track not present in AccurateRip database
Copy OK

Track 4

Filename D:\Rips\Yellowcard – 2011 -When You’re Through Thinking Say Yes\04 – Hang You Up.wav

Peak level 100.0 %
Track quality 100.0 %
Test CRC 65FA921B
Copy CRC 65FA921B
Track not present in AccurateRip database
Copy OK

Track 5

Filename D:\Rips\Yellowcard – 2011 -When You’re Through Thinking Say Yes\05 – Life of Leaving Home.wav

Peak level 100.0 %
Track quality 99.9 %
Test CRC DB9EBF87
Copy CRC DB9EBF87
Track not present in AccurateRip database
Copy OK

Track 6

Filename D:\Rips\Yellowcard – 2011 -When You’re Through Thinking Say Yes\06 – Hide.wav

Peak level 100.0 %
Track quality 100.0 %
Test CRC 40822B74
Copy CRC 40822B74
Track not present in AccurateRip database
Copy OK

Track 7

Filename D:\Rips\Yellowcard – 2011 -When You’re Through Thinking Say Yes\07 – Soundtrack.wav

Peak level 100.0 %
Track quality 100.0 %
Test CRC 365FD1F6
Copy CRC 365FD1F6
Track not present in AccurateRip database
Copy OK

Track 8

Filename D:\Rips\Yellowcard – 2011 -When You’re Through Thinking Say Yes\08 – Sing for Me.wav

Peak level 100.0 %
Track quality 99.9 %
Test CRC DD4DF6D3
Copy CRC DD4DF6D3
Track not present in AccurateRip database
Copy OK

Track 9

Filename D:\Rips\Yellowcard – 2011 -When You’re Through Thinking Say Yes\09 – See Me Smiling.wav

Peak level 100.0 %
Track quality 99.9 %
Test CRC E5B87ACC
Copy CRC E5B87ACC
Track not present in AccurateRip database
Copy OK

Track 10

Filename D:\Rips\Yellowcard – 2011 -When You’re Through Thinking Say Yes\10 – Be The Young.wav

Peak level 100.0 %
Track quality 100.0 %
Test CRC 7FA19FB0
Copy CRC 7FA19FB0
Track not present in AccurateRip database
Copy OK

None of the tracks are present in the AccurateRip database

No errors occurred

End of status report

REM DATE 2011
REM DISCID 8608B50A
REM COMMENT “ExactAudioCopy v0.99pb5”
FILE “01 – The Sound of You and Me.wav” WAVE
TRACK 01 AUDIO
INDEX 01 00:00:00
FILE “02 – For You, and Your Denial.wav” WAVE
TRACK 02 AUDIO
INDEX 01 00:00:00
FILE “03 – With You Around.wav” WAVE
TRACK 03 AUDIO
INDEX 01 00:00:00
FILE “04 – Hang You Up.wav” WAVE
TRACK 04 AUDIO
INDEX 01 00:00:00
FILE “05 – Life of Leaving Home.wav” WAVE
TRACK 05 AUDIO
INDEX 01 00:00:00
FILE “06 – Hide.wav” WAVE
TRACK 06 AUDIO
INDEX 01 00:00:00
FILE “07 – Soundtrack.wav” WAVE
TRACK 07 AUDIO
INDEX 01 00:00:00
FILE “08 – Sing for Me.wav” WAVE
TRACK 08 AUDIO
INDEX 01 00:00:00
FILE “09 – See Me Smiling.wav” WAVE
TRACK 09 AUDIO
INDEX 01 00:00:00
FILE “10 – Be The Young.wav” WAVE
TRACK 10 AUDIO
INDEX 01 00:00:00


Leave a Reply

Your email address will not be published. Required fields are marked *

Enter the text from the image below
 

This site uses Akismet to reduce spam. Learn how your comment data is processed.