Yellowcard – Paper Walls




No Cover available

Artist: Yellowcard
Year: 2007
Genre: Punk
Notes: Discogs
Add. Notes:
Watch Songs on: YouTube
Cover incl.: Yes
Encoder: FLAC
Bitrate: ~1000 kBit/s (44.1 kHz/16 Bit/s)
Log & Cue incl.: Yes/Yes
Size: 361,1 MB
Password: “slam” (without ” “)


All Downloads/Hosters are compatible

Download 1
KatFile.com
Turbobit.net
Rapidgator.net
FileFactory.com
Download 2
KatFile.com
Turbobit.net
Rapidgator.net
FileFactory.com

Tracklist:

1 The Takedown 3:36
2 Fighting 3:00
3 Shrink The World 3:20
4 Keeper 3:55
5 Light Up The Sky 3:36
6 Shadows And Regrets 3:59
7 Five Becomes Four 3:29
8 Afraid 3:13
9 Date Line (I Am Gone) 3:22
10 Dear Bobbie 4:13
11 You And Me And One Spotlight 3:57
12 Cut Me, Mick 3:33
13 Paper Walls 4:27

EAC-Log, CUE-Sheed & NFO:

Click to open spoiler
EAC extraction logfile from 27. July 2007, 12:38 for CD
Yellowcard / Paper Walls

Used drive : SONY DVD+-RW DW-D56A Adapter: 1 ID: 0
Read mode : Secure with NO C2, accurate stream, disable cache
Read offset correction : 12
Overread into Lead-In and Lead-Out : No

Used output format : C:\Program Files\Exact Audio Copy\flac-1.1.4-win\bin\flac.exe (User Defined Encoder)
192 kBit/s
Additional command line options : -V -5 -T “artist=%a” -T “title=%t” -T “album=%g” -T “date=%y” -T “tracknumber=%n” -T “genre=%m” %s

Other options :
Fill up missing offset samples with silence : Yes
Delete leading and trailing silent blocks : No
Installed external ASPI interface

Track 1
Filename C:\Documents and Settings\John\Desktop\Yellowcard – Paper Walls FLAC 20007\01 – Yellowcard – The Takedown.wav

Pre-gap length 0:00:02.00

Peak level 96.6 %
Track quality 99.9 %
Test CRC 391139B8
Copy CRC 391139B8
Copy OK

Track 2
Filename C:\Documents and Settings\John\Desktop\Yellowcard – Paper Walls FLAC 20007\02 – Yellowcard – Fighting.wav

Peak level 96.6 %
Track quality 100.0 %
Test CRC 0B82AF1D
Copy CRC 0B82AF1D
Copy OK

Track 3
Filename C:\Documents and Settings\John\Desktop\Yellowcard – Paper Walls FLAC 20007\03 – Yellowcard – Shrink the World.wav

Peak level 96.6 %
Track quality 100.0 %
Test CRC AD4754E5
Copy CRC AD4754E5
Copy OK

Track 4
Filename C:\Documents and Settings\John\Desktop\Yellowcard – Paper Walls FLAC 20007\04 – Yellowcard – Keeper.wav

Peak level 96.6 %
Track quality 100.0 %
Test CRC E577036D
Copy CRC E577036D
Copy OK

Track 5
Filename C:\Documents and Settings\John\Desktop\Yellowcard – Paper Walls FLAC 20007\05 – Yellowcard – Light Up the Sky.wav

Peak level 96.6 %
Track quality 100.0 %
Test CRC F4A06949
Copy CRC F4A06949
Copy OK

Track 6
Filename C:\Documents and Settings\John\Desktop\Yellowcard – Paper Walls FLAC 20007\06 – Yellowcard – Shadows and Regrets.wav

Peak level 96.6 %
Track quality 100.0 %
Test CRC 920AEAD8
Copy CRC 920AEAD8
Copy OK

Track 7
Filename C:\Documents and Settings\John\Desktop\Yellowcard – Paper Walls FLAC 20007\07 – Yellowcard – Five Becomes Four.wav

Peak level 96.6 %
Track quality 100.0 %
Test CRC 948B537A
Copy CRC 948B537A
Copy OK

Track 8
Filename C:\Documents and Settings\John\Desktop\Yellowcard – Paper Walls FLAC 20007\08 – Yellowcard – Afraid.wav

Peak level 96.6 %
Track quality 100.0 %
Test CRC F85F3BEB
Copy CRC F85F3BEB
Copy OK

Track 9
Filename C:\Documents and Settings\John\Desktop\Yellowcard – Paper Walls FLAC 20007\09 – Yellowcard – Date Line (I Am Gone).wav

Peak level 96.6 %
Track quality 100.0 %
Test CRC 61096BAF
Copy CRC 61096BAF
Copy OK

Track 10
Filename C:\Documents and Settings\John\Desktop\Yellowcard – Paper Walls FLAC 20007\10 – Yellowcard – Dear Bobbie.wav

Peak level 96.6 %
Track quality 100.0 %
Test CRC 6E6772D1
Copy CRC 6E6772D1
Copy OK

Track 11
Filename C:\Documents and Settings\John\Desktop\Yellowcard – Paper Walls FLAC 20007\11 – Yellowcard – You and Me and One Spot Light.wav

Peak level 96.6 %
Track quality 100.0 %
Test CRC FE497703
Copy CRC FE497703
Copy OK

Track 12
Filename C:\Documents and Settings\John\Desktop\Yellowcard – Paper Walls FLAC 20007\12 – Yellowcard – Cut Me, Mick.wav

Peak level 100.0 %
Track quality 100.0 %
Test CRC E2E97F07
Copy CRC E2E97F07
Copy OK

Track 13
Filename C:\Documents and Settings\John\Desktop\Yellowcard – Paper Walls FLAC 20007\13 – Yellowcard – Paper Walls.wav

Peak level 96.6 %
Track quality 100.0 %
Test CRC ED83FE25
Copy CRC ED83FE25
Copy OK

No errors occured

End of status report

REM GENRE Alternative
REM DATE 2007
REM DISCID B10B370D
REM COMMENT “ExactAudioCopy v0.95b3”
PERFORMER “Yellowcard”
TITLE “Paper Walls”
FILE “01 – Yellowcard – The Takedown.wav” WAVE
TRACK 01 AUDIO
TITLE “The Takedown”
PERFORMER “Yellowcard”
INDEX 01 00:00:00
FILE “02 – Yellowcard – Fighting.wav” WAVE
TRACK 02 AUDIO
TITLE “Fighting”
PERFORMER “Yellowcard”
INDEX 01 00:00:00
FILE “03 – Yellowcard – Shrink the World.wav” WAVE
TRACK 03 AUDIO
TITLE “Shrink the World”
PERFORMER “Yellowcard”
INDEX 01 00:00:00
FILE “04 – Yellowcard – Keeper.wav” WAVE
TRACK 04 AUDIO
TITLE “Keeper”
PERFORMER “Yellowcard”
INDEX 01 00:00:00
FILE “05 – Yellowcard – Light Up the Sky.wav” WAVE
TRACK 05 AUDIO
TITLE “Light Up the Sky”
PERFORMER “Yellowcard”
INDEX 01 00:00:00
FILE “06 – Yellowcard – Shadows and Regrets.wav” WAVE
TRACK 06 AUDIO
TITLE “Shadows and Regrets”
PERFORMER “Yellowcard”
INDEX 01 00:00:00
FILE “07 – Yellowcard – Five Becomes Four.wav” WAVE
TRACK 07 AUDIO
TITLE “Five Becomes Four”
PERFORMER “Yellowcard”
INDEX 01 00:00:00
FILE “08 – Yellowcard – Afraid.wav” WAVE
TRACK 08 AUDIO
TITLE “Afraid”
PERFORMER “Yellowcard”
INDEX 01 00:00:00
FILE “09 – Yellowcard – Date Line (I Am Gone).wav” WAVE
TRACK 09 AUDIO
TITLE “Date Line (I Am Gone)”
PERFORMER “Yellowcard”
INDEX 01 00:00:00
FILE “10 – Yellowcard – Dear Bobbie.wav” WAVE
TRACK 10 AUDIO
TITLE “Dear Bobbie”
PERFORMER “Yellowcard”
INDEX 01 00:00:00
FILE “11 – Yellowcard – You and Me and One Spot Light.wav” WAVE
TRACK 11 AUDIO
TITLE “You and Me and One Spot Light”
PERFORMER “Yellowcard”
INDEX 01 00:00:00
FILE “12 – Yellowcard – Cut Me, Mick.wav” WAVE
TRACK 12 AUDIO
TITLE “Cut Me, Mick”
PERFORMER “Yellowcard”
INDEX 01 00:00:00
FILE “13 – Yellowcard – Paper Walls.wav” WAVE
TRACK 13 AUDIO
TITLE “Paper Walls”
PERFORMER “Yellowcard”
INDEX 01 00:00:00


Leave a Reply

Your email address will not be published. Required fields are marked *

Enter the text from the image below
 

This site uses Akismet to reduce spam. Learn how your comment data is processed.