Yellowcard – One For The Kids




No Cover available

Artist: Yellowcard
Year: 2001
Genre: Punk
Notes: Discogs
Add. Notes:
Watch Songs on: YouTube
Cover incl.: Yes
Encoder: FLAC
Bitrate: ~900 kBit/s (44.1 kHz/16 Bit/s)
Log & Cue incl.: Yes/Yes
Size: 261,9 MB
Password: “slam” (without ” “)


All Downloads/Hosters are compatible

Download 1
KatFile.com
Turbobit.net
Rapidgator.net
FileFactory.com
Download 2
KatFile.com
Turbobit.net
Rapidgator.net
FileFactory.com

Tracklist:

1 ★ Struck 2:45
2 Drifting 3:28
3 Something Of Value 3:29
4 Trembling 2:25
5 Sureshot 3:17
6 Big Apple Heartbreak 3:41
7 Cigarette 3:52
8 October Nights 3:29
9 Rock Star Land 3:39
10 For Pete's Sake 3:50
11 A.W.O.L. 2:55
12 Rough Draft 5:17

EAC-Log, CUE-Sheed & NFO:

Click to open spoiler
EAC extraction logfile from 6. November 2007, 23:02 for CD
Yellowcard / One For The Kids

Used drive : SONY DVD+-RW DW-D56A Adapter: 1 ID: 0
Read mode : Secure with NO C2, accurate stream, disable cache
Read offset correction : 12
Overread into Lead-In and Lead-Out : No

Used output format : C:\Program Files\Exact Audio Copy\FLAC\flac.exe (User Defined Encoder)
192 kBit/s
Additional command line options : -V -5 -T “artist=%a” -T “title=%t” -T “album=%g” -T “date=%y” -T “tracknumber=%n” -T “genre=%m” %s

Other options :
Fill up missing offset samples with silence : Yes
Delete leading and trailing silent blocks : No
Installed external ASPI interface

Track 1
Filename C:\Documents and Settings\John\Desktop\Yellowcard – One For The Kids (FLAC) (2001-Original Release)\01 – Yellowcard – Starstruck.wav

Pre-gap length 0:00:02.00

Peak level 98.6 %
Track quality 99.8 %
Test CRC 3FC58967
Copy CRC 3FC58967
Copy OK

Track 2
Filename C:\Documents and Settings\John\Desktop\Yellowcard – One For The Kids (FLAC) (2001-Original Release)\02 – Yellowcard – Drifting.wav

Peak level 98.3 %
Track quality 99.8 %
Test CRC E2E4A705
Copy CRC E2E4A705
Copy OK

Track 3
Filename C:\Documents and Settings\John\Desktop\Yellowcard – One For The Kids (FLAC) (2001-Original Release)\03 – Yellowcard – Something of Value.wav

Peak level 98.5 %
Track quality 100.0 %
Test CRC 7BF705AB
Copy CRC 7BF705AB
Copy OK

Track 4
Filename C:\Documents and Settings\John\Desktop\Yellowcard – One For The Kids (FLAC) (2001-Original Release)\04 – Yellowcard – Trembling.wav

Peak level 98.7 %
Track quality 100.0 %
Test CRC BE4F770A
Copy CRC BE4F770A
Copy OK

Track 5
Filename C:\Documents and Settings\John\Desktop\Yellowcard – One For The Kids (FLAC) (2001-Original Release)\05 – Yellowcard – Sure Shot.wav

Pre-gap length 0:00:00.50

Peak level 98.9 %
Track quality 99.9 %
Test CRC E117483F
Copy CRC E117483F
Copy OK

Track 6
Filename C:\Documents and Settings\John\Desktop\Yellowcard – One For The Kids (FLAC) (2001-Original Release)\06 – Yellowcard – Big Apple Heartbreak.wav

Pre-gap length 0:00:00.42

Peak level 98.8 %
Track quality 100.0 %
Test CRC 303C1894
Copy CRC 303C1894
Copy OK

Track 7
Filename C:\Documents and Settings\John\Desktop\Yellowcard – One For The Kids (FLAC) (2001-Original Release)\07 – Yellowcard – Cigarette.wav

Pre-gap length 0:00:01.70

Peak level 98.1 %
Track quality 100.0 %
Test CRC 5FF9B19B
Copy CRC 5FF9B19B
Copy OK

Track 8
Filename C:\Documents and Settings\John\Desktop\Yellowcard – One For The Kids (FLAC) (2001-Original Release)\08 – Yellowcard – October Nights.wav

Peak level 99.4 %
Track quality 100.0 %
Test CRC 8E63DECE
Copy CRC 8E63DECE
Copy OK

Track 9
Filename C:\Documents and Settings\John\Desktop\Yellowcard – One For The Kids (FLAC) (2001-Original Release)\09 – Yellowcard – Rock Star Land.wav

Peak level 98.6 %
Track quality 100.0 %
Test CRC 7B013A14
Copy CRC 7B013A14
Copy OK

Track 10
Filename C:\Documents and Settings\John\Desktop\Yellowcard – One For The Kids (FLAC) (2001-Original Release)\10 – Yellowcard – For Pete’s Sake.wav

Peak level 99.4 %
Track quality 99.9 %
Test CRC 05B99462
Copy CRC 05B99462
Copy OK

Track 11
Filename C:\Documents and Settings\John\Desktop\Yellowcard – One For The Kids (FLAC) (2001-Original Release)\11 – Yellowcard – AWOL.wav

Peak level 99.2 %
Track quality 100.0 %
Test CRC 0C414526
Copy CRC 0C414526
Copy OK

Track 12
Filename C:\Documents and Settings\John\Desktop\Yellowcard – One For The Kids (FLAC) (2001-Original Release)\12 – Yellowcard – Data.wav

Peak level 99.3 %
Track quality 100.0 %
Test CRC 0377A329
Copy CRC 0377A329
Copy OK

No errors occured

End of status report

REM GENRE Punk-Rock
REM DATE 2001
REM DISCID BE09F00C
REM COMMENT “ExactAudioCopy v0.95b3”
PERFORMER “Yellowcard”
TITLE “One For The Kids”
FILE “01 – Yellowcard – Starstruck.wav” WAVE
TRACK 01 AUDIO
TITLE “Starstruck”
PERFORMER “Yellowcard”
INDEX 01 00:00:00
FILE “02 – Yellowcard – Drifting.wav” WAVE
TRACK 02 AUDIO
TITLE “Drifting”
PERFORMER “Yellowcard”
INDEX 01 00:00:00
FILE “03 – Yellowcard – Something of Value.wav” WAVE
TRACK 03 AUDIO
TITLE “Something of Value”
PERFORMER “Yellowcard”
INDEX 01 00:00:00
FILE “04 – Yellowcard – Trembling.wav” WAVE
TRACK 04 AUDIO
TITLE “Trembling”
PERFORMER “Yellowcard”
INDEX 01 00:00:00
TRACK 05 AUDIO
TITLE “Sure Shot”
PERFORMER “Yellowcard”
INDEX 00 02:25:42
FILE “05 – Yellowcard – Sure Shot.wav” WAVE
INDEX 01 00:00:00
TRACK 06 AUDIO
TITLE “Big Apple Heartbreak”
PERFORMER “Yellowcard”
INDEX 00 03:18:10
FILE “06 – Yellowcard – Big Apple Heartbreak.wav” WAVE
INDEX 01 00:00:00
TRACK 07 AUDIO
TITLE “Cigarette”
PERFORMER “Yellowcard”
INDEX 00 03:41:55
FILE “07 – Yellowcard – Cigarette.wav” WAVE
INDEX 01 00:00:00
FILE “08 – Yellowcard – October Nights.wav” WAVE
TRACK 08 AUDIO
TITLE “October Nights”
PERFORMER “Yellowcard”
INDEX 01 00:00:00
FILE “09 – Yellowcard – Rock Star Land.wav” WAVE
TRACK 09 AUDIO
TITLE “Rock Star Land”
PERFORMER “Yellowcard”
INDEX 01 00:00:00
FILE “10 – Yellowcard – For Pete’s Sake.wav” WAVE
TRACK 10 AUDIO
TITLE “For Pete’s Sake”
PERFORMER “Yellowcard”
INDEX 01 00:00:00
FILE “11 – Yellowcard – AWOL.wav” WAVE
TRACK 11 AUDIO
TITLE “AWOL”
PERFORMER “Yellowcard”
INDEX 01 00:00:00
FILE “12 – Yellowcard – Data.wav” WAVE
TRACK 12 AUDIO
TITLE “Data”
PERFORMER “Yellowcard”
INDEX 01 00:00:00


Leave a Reply

Your email address will not be published. Required fields are marked *

Enter the text from the image below
 

This site uses Akismet to reduce spam. Learn how your comment data is processed.