Yellowcard – Lights And Sounds




No Cover available

Artist: Yellowcard
Year: 2006
Genre: Punk
Notes: Discogs
Add. Notes:
Watch Songs on: YouTube
Cover incl.: Yes
Encoder: FLAC
Bitrate: ~1000 kBit/s (44.1 kHz/16 Bit/s)
Log & Cue incl.: Yes/Yes
Size: 381,4 MB
Password: “slam” (without ” “)


All Downloads/Hosters are compatible

Download 1
KatFile.com
Turbobit.net
Rapidgator.net
FileFactory.com
Download 2
KatFile.com
Turbobit.net
Rapidgator.net
FileFactory.com

Tracklist:

1 Three Flights Up 1:23
2 Lights And Sounds 3:28
3 Down On My Head 3:32
4 Sure Thing Falling 3:42
5 City Of Devils 4:23
6 Rough Landing, Holly 3:33
7 Two Weeks From Twenty 4:18
8 Waiting Game 4:15
9 Martin Sheen Or JFK 3:46
10 Space Travel 3:47
11 Grey 3:00
12 Words, Hands, Hearts 4:24
13 How I Go 4:32
14 Holly Wood Died 4:39

EAC-Log, CUE-Sheed & NFO:

Click to open spoiler
REM GENRE Rock
REM DATE 2006
REM DISCID C40C600E
REM COMMENT “ExactAudioCopy v0.95b3”
PERFORMER “Yellowcard”
TITLE “Lights & Sounds”
FILE “01 – Yellowcard – Three Flights Up.wav” WAVE
TRACK 01 AUDIO
TITLE “Three Flights Up”
PERFORMER “Yellowcard”
INDEX 01 00:00:00
FILE “02 – Yellowcard – Lights & Sounds.wav” WAVE
TRACK 02 AUDIO
TITLE “Lights & Sounds”
PERFORMER “Yellowcard”
INDEX 01 00:00:00
FILE “03 – Yellowcard – Down On My Head.wav” WAVE
TRACK 03 AUDIO
TITLE “Down On My Head”
PERFORMER “Yellowcard”
INDEX 01 00:00:00
FILE “04 – Yellowcard – Sure Thing Falling.wav” WAVE
TRACK 04 AUDIO
TITLE “Sure Thing Falling”
PERFORMER “Yellowcard”
EAC extraction logfile from 9. June 2007, 12:33 for CD
Yellowcard / Lights & Sounds

Used drive : Optiarc DVD RW AD-7170A Adapter: 0 ID: 1
Read mode : Secure with NO C2, accurate stream, disable cache
Read offset correction : 48
Overread into Lead-In and Lead-Out : No

Used output format : C:\Program Files\Exact Audio Copy\flac.exe (User Defined Encoder)
192 kBit/s
Additional command line options : -8 -A tukey(0.25) -A gauss(0.1875) -b 4096 -V -T “artist=%a” -T “title=%t” -T “album=%g” -T “date=%y” -T “tracknumber=%n” -T “genre=%m” %s –sector-align

Other options :
Fill up missing offset samples with silence : Yes
Delete leading and trailing silent blocks : No
Installed external ASPI interface

Track 1
Filename M:\OiNK\#LibraryRips\Yellowcard – Lights & Sounds [2006_FLAC]\01 – Yellowcard – Three Flights Up.wav

Pre-gap length 0:00:02.00

Peak level 96.3 %
Track quality 99.8 %
Test CRC 460668FD
Copy CRC 460668FD
Copy OK

Track 2
Filename M:\OiNK\#LibraryRips\Yellowcard – Lights & Sounds [2006_FLAC]\02 – Yellowcard – Lights & Sounds.wav

Peak level 96.6 %
Track quality 99.9 %
Test CRC 60AB4744
Copy CRC 60AB4744
Copy OK

Track 3
Filename M:\OiNK\#LibraryRips\Yellowcard – Lights & Sounds [2006_FLAC]\03 – Yellowcard – Down On My Head.wav

Peak level 97.7 %
Track quality 100.0 %
Test CRC 337CDAD3
Copy CRC 337CDAD3
Copy OK

Track 4
Filename M:\OiNK\#LibraryRips\Yellowcard – Lights & Sounds [2006_FLAC]\04 – Yellowcard – Sure Thing Falling.wav

Peak level 94.8 %
Track quality 99.9 %
Test CRC 31BA7F59
Copy CRC 31BA7F59
Copy OK

Track 5
Filename M:\OiNK\#LibraryRips\Yellowcard – Lights & Sounds [2006_FLAC]\05 – Yellowcard – City Of Devils.wav

Peak level 96.6 %
Track quality 100.0 %
Test CRC 940DC331
Copy CRC 940DC331
Copy OK

Track 6
Filename M:\OiNK\#LibraryRips\Yellowcard – Lights & Sounds [2006_FLAC]\06 – Yellowcard – Rough Landing, Holly.wav

Peak level 96.6 %
Track quality 100.0 %
Test CRC 01EE817E
Copy CRC 01EE817E
Copy OK

Track 7
Filename M:\OiNK\#LibraryRips\Yellowcard – Lights & Sounds [2006_FLAC]\07 – Yellowcard – Two Weeks From Twenty.wav

Peak level 96.6 %
Track quality 99.9 %
Test CRC A2607DC4
Copy CRC A2607DC4
Copy OK

Track 8
Filename M:\OiNK\#LibraryRips\Yellowcard – Lights & Sounds [2006_FLAC]\08 – Yellowcard – Waiting Game.wav

Pre-gap length 0:00:01.32

Peak level 96.6 %
Track quality 99.9 %
Test CRC 6783C705
Copy CRC 6783C705
Copy OK

Track 9
Filename M:\OiNK\#LibraryRips\Yellowcard – Lights & Sounds [2006_FLAC]\09 – Yellowcard – Martin Sheen Or JFK.wav

Pre-gap length 0:00:01.53

Peak level 97.7 %
Track quality 100.0 %
Test CRC 135EE97F
Copy CRC 135EE97F
Copy OK

Track 10
Filename M:\OiNK\#LibraryRips\Yellowcard – Lights & Sounds [2006_FLAC]\10 – Yellowcard – Space Travel.wav

Peak level 98.9 %
Track quality 100.0 %
Test CRC 803412DC
Copy CRC 803412DC
Copy OK

Track 11
Filename M:\OiNK\#LibraryRips\Yellowcard – Lights & Sounds [2006_FLAC]\11 – Yellowcard – Grey.wav

Pre-gap length 0:00:00.01

Peak level 97.7 %
Track quality 99.9 %
Test CRC E2674262
Copy CRC E2674262
Copy OK

Track 12
Filename M:\OiNK\#LibraryRips\Yellowcard – Lights & Sounds [2006_FLAC]\12 – Yellowcard – Words, Hands, Hearts.wav

Peak level 97.7 %
Track quality 100.0 %
Test CRC 2E6267AD
Copy CRC 2E6267AD
Copy OK

Track 13
Filename M:\OiNK\#LibraryRips\Yellowcard – Lights & Sounds [2006_FLAC]\13 – Yellowcard – How I Go.wav

Peak level 97.7 %
Track quality 100.0 %
Test CRC 07C2025B
Copy CRC 07C2025B
Copy OK

Track 14
Filename M:\OiNK\#LibraryRips\Yellowcard – Lights & Sounds [2006_FLAC]\14 – Yellowcard – Holly Wood Died.wav

Peak level 97.7 %
Track quality 100.0 %
Test CRC 2C592232
Copy CRC 2C592232
Copy OK

No errors occured

End of status report

INDEX 01 00:00:00
FILE “05 – Yellowcard – City Of Devils.wav” WAVE
TRACK 05 AUDIO
TITLE “City Of Devils”
PERFORMER “Yellowcard”
INDEX 01 00:00:00
FILE “06 – Yellowcard – Rough Landing, Holly.wav” WAVE
TRACK 06 AUDIO
TITLE “Rough Landing, Holly”
PERFORMER “Yellowcard”
INDEX 01 00:00:00
FILE “07 – Yellowcard – Two Weeks From Twenty.wav” WAVE
TRACK 07 AUDIO
TITLE “Two Weeks From Twenty”
PERFORMER “Yellowcard”
INDEX 01 00:00:00
TRACK 08 AUDIO
TITLE “Waiting Game”
PERFORMER “Yellowcard”
INDEX 00 04:17:24
FILE “08 – Yellowcard – Waiting Game.wav” WAVE
INDEX 01 00:00:00
TRACK 09 AUDIO
TITLE “Martin Sheen Or JFK”
PERFORMER “Yellowcard”
INDEX 00 04:13:59
FILE “09 – Yellowcard – Martin Sheen Or JFK.wav” WAVE
INDEX 01 00:00:00
FILE “10 – Yellowcard – Space Travel.wav” WAVE
TRACK 10 AUDIO
TITLE “Space Travel”
PERFORMER “Yellowcard”
INDEX 01 00:00:00
TRACK 11 AUDIO
TITLE “Grey”
PERFORMER “Yellowcard”
INDEX 00 03:47:11
FILE “11 – Yellowcard – Grey.wav” WAVE
INDEX 01 00:00:00
FILE “12 – Yellowcard – Words, Hands, Hearts.wav” WAVE
TRACK 12 AUDIO
TITLE “Words, Hands, Hearts”
PERFORMER “Yellowcard”
INDEX 01 00:00:00
FILE “13 – Yellowcard – How I Go.wav” WAVE
TRACK 13 AUDIO
TITLE “How I Go”
PERFORMER “Yellowcard”
INDEX 01 00:00:00
FILE “14 – Yellowcard – Holly Wood Died.wav” WAVE
TRACK 14 AUDIO
TITLE “Holly Wood Died”
PERFORMER “Yellowcard”
INDEX 01 00:00:00


Leave a Reply

Your email address will not be published. Required fields are marked *

Enter the text from the image below
 

This site uses Akismet to reduce spam. Learn how your comment data is processed.