X – At Home With You




Artist: X
Year: 1985
Genre: Punk
Notes: Discogs
Add. Notes:
Cover incl.: Yes
Encoder: FLAC
Bitrate: ~900 kBit/s (44.1 kHz/16 Bit/s)
Log & Cue incl.: Yes
Size: 644,57 MB
Password: “slam” (without ” “)


All Downloads/Hosters are compatible

Download 1
Turbobit.net
Rapidgator.net
KatFile.com
UploadRar.com
Download 2
Turbobit.net
Rapidgator.net
KatFile.com
UploadRar.com
Download 3
Turbobit.net
Rapidgator.net
KatFile.com
UploadRar.com

Tracklist:

At Home With You
1-1. The Feel. 
1-2. T.V. Glue. 
1-3. Movin' On. 
1-4. Half Way Round The World. 
1-5. You Say That You Love Me. 
1-6. Degenerate Boy. 
1-7. All Over Now. 
1-8. At Home With You. 
1-9. Goin' Crazy. 
1-10. Oxford Street Nick. 
1-11. Don't Cry No Tears. 
1-12. She's Gone. 
1-13. El Salvador. 

Live At The Prince Of Wales, 1985
2-1. The Feel. 
2-2. Degenerate Boy. 
2-3. Simulated Lovers. 
2-4. Delinquent Cars. 
2-5. Good On Ya Baby. 
2-6. Goin' Crazy. 
2-7. Oxford Street Nick. 
2-8. She's Gone. 
2-9. Waiting. 
2-10. Dipstick. 
2-11. Suck Suck. 
2-12. Half Way Round The World. 
2-13. All Over Now. 
2-14. T.V. Glue. 
2-15. I Don't Wanna Go Out

EAC-Log, CUE-Sheed & NFO:

Click to open spoiler

EAC extraction logfile from 2. July 2010, 11:05

X / At Home With You (Deluxe Edition) (Disc 1)

Used drive : Optiarc DVD RW AD-7203S Adapter: 1 ID: 0

Read mode : Secure
Utilize accurate stream : Yes
Defeat audio cache : Yes
Make use of C2 pointers : No

Read offset correction : 48
Overread into Lead-In and Lead-Out : No
Fill up missing offset samples with silence : Yes
Delete leading and trailing silent blocks : No
Null samples used in CRC calculations : Yes
Used interface : Native Win32 interface for Win NT & 2000
Gap handling : Appended to previous track

Used output format : Internal WAV Routines
Sample format : 44.100 Hz; 16 Bit; Stereo

TOC of the extracted CD

Track | Start | Length | Start sector | End sector
———————————————————
1 | 0:01.30 | 2:23.31 | 105 | 10860
2 | 2:24.61 | 4:27.55 | 10861 | 30940
3 | 6:52.41 | 3:38.29 | 30941 | 47319
4 | 10:30.70 | 3:02.21 | 47320 | 60990
5 | 13:33.16 | 2:05.73 | 60991 | 70438
6 | 15:39.14 | 4:31.12 | 70439 | 90775
7 | 20:10.26 | 3:26.53 | 90776 | 106278
8 | 23:37.04 | 2:59.53 | 106279 | 119756
9 | 26:36.57 | 2:33.43 | 119757 | 131274
10 | 29:10.25 | 2:05.08 | 131275 | 140657
11 | 31:15.33 | 4:31.57 | 140658 | 161039
12 | 35:47.15 | 3:10.38 | 161040 | 175327
13 | 38:57.53 | 5:15.31 | 175328 | 198983

Track 1

Filename C:\EAC rips\X – At Home With You (Deluxe Edition) (Disc 1) (1985) (flac)\01. The Feel.wav

Pre-gap length 0:00:03.30

Peak level 100.0 %
Track quality 100.0 %
Test CRC 6482723F
Copy CRC 6482723F
Cannot be verified as accurate (confidence 1) [99D4EACA], AccurateRip returned [240603A4]
Copy OK

Track 2

Filename C:\EAC rips\X – At Home With You (Deluxe Edition) (Disc 1) (1985) (flac)\02. T.V. Glue.wav

Peak level 100.0 %
Track quality 100.0 %
Test CRC 99235446
Copy CRC 99235446
Accurately ripped (confidence 1) [01B755AF]
Copy OK

Track 3

Filename C:\EAC rips\X – At Home With You (Deluxe Edition) (Disc 1) (1985) (flac)\03. Movin’ On.wav

Peak level 100.0 %
Track quality 100.0 %
Test CRC 5380C2C5
Copy CRC 5380C2C5
Accurately ripped (confidence 1) [5E4877E2]
Copy OK

Track 4

Filename C:\EAC rips\X – At Home With You (Deluxe Edition) (Disc 1) (1985) (flac)\04. Half Way Round The World.wav

Peak level 100.0 %
Track quality 99.9 %
Test CRC 854C2792
Copy CRC 854C2792
Accurately ripped (confidence 1) [8F4E1C12]
Copy OK

Track 5

Filename C:\EAC rips\X – At Home With You (Deluxe Edition) (Disc 1) (1985) (flac)\05. You Say That You Love Me.wav

Peak level 100.0 %
Track quality 100.0 %
Test CRC 68E5C3B4
Copy CRC 68E5C3B4
Accurately ripped (confidence 1) [45B4860C]
Copy OK

Track 6

Filename C:\EAC rips\X – At Home With You (Deluxe Edition) (Disc 1) (1985) (flac)\06. Degenerate Boy.wav

Peak level 100.0 %
Track quality 100.0 %
Test CRC 215F1C5F
Copy CRC 215F1C5F
Accurately ripped (confidence 1) [5334693B]
Copy OK

Track 7

Filename C:\EAC rips\X – At Home With You (Deluxe Edition) (Disc 1) (1985) (flac)\07. All Over Now.wav

Peak level 100.0 %
Track quality 100.0 %
Test CRC ECB5E99C
Copy CRC ECB5E99C
Accurately ripped (confidence 1) [39221409]
Copy OK

Track 8

Filename C:\EAC rips\X – At Home With You (Deluxe Edition) (Disc 1) (1985) (flac)\08. At Home With You.wav

Peak level 100.0 %
Track quality 100.0 %
Test CRC 50B1ECEE
Copy CRC 50B1ECEE
Accurately ripped (confidence 1) [E02BB8BE]
Copy OK

Track 9

Filename C:\EAC rips\X – At Home With You (Deluxe Edition) (Disc 1) (1985) (flac)\09. Goin’ Crazy.wav

Peak level 100.0 %
Track quality 100.0 %
Test CRC E2FA2482
Copy CRC E2FA2482
Accurately ripped (confidence 1) [B08245C8]
Copy OK

Track 10

Filename C:\EAC rips\X – At Home With You (Deluxe Edition) (Disc 1) (1985) (flac)\10. Oxford Street Nick.wav

Peak level 100.0 %
Track quality 100.0 %
Test CRC 15997863
Copy CRC 15997863
Accurately ripped (confidence 1) [3F48EA4D]
Copy OK

Track 11

Filename C:\EAC rips\X – At Home With You (Deluxe Edition) (Disc 1) (1985) (flac)\11. Don’t Cry No Tears.wav

Peak level 100.0 %
Track quality 100.0 %
Test CRC 41CC2289
Copy CRC 41CC2289
Accurately ripped (confidence 1) [093D3E43]
Copy OK

Track 12

Filename C:\EAC rips\X – At Home With You (Deluxe Edition) (Disc 1) (1985) (flac)\12. She’s Gone.wav

Peak level 100.0 %
Track quality 100.0 %
Test CRC A1E3F9D9
Copy CRC A1E3F9D9
Accurately ripped (confidence 1) [78DDE094]
Copy OK

Track 13

Filename C:\EAC rips\X – At Home With You (Deluxe Edition) (Disc 1) (1985) (flac)\13. El Salvador (Live At The Prince Of Wales, 1985).wav

Peak level 100.0 %
Track quality 100.0 %
Test CRC C14E1A68
Copy CRC C14E1A68
Accurately ripped (confidence 1) [DC970226]
Copy OK

12 track(s) accurately ripped
1 track(s) could not be verified as accurate

Some tracks could not be verified as accurate

No errors occurred

End of status report

Exact Audio Copy V0.99 prebeta 5 from 4. May 2009

EAC extraction logfile from 1. July 2010, 22:53

X / At Home With You (Deluxe Edition) (Disc 2)

Used drive : Optiarc DVD RW AD-7203S Adapter: 1 ID: 0

Read mode : Secure
Utilize accurate stream : Yes
Defeat audio cache : Yes
Make use of C2 pointers : No

Read offset correction : 48
Overread into Lead-In and Lead-Out : No
Fill up missing offset samples with silence : Yes
Delete leading and trailing silent blocks : No
Null samples used in CRC calculations : Yes
Used interface : Native Win32 interface for Win NT & 2000
Gap handling : Appended to previous track

Used output format : Internal WAV Routines
Sample format : 44.100 Hz; 16 Bit; Stereo

TOC of the extracted CD

Track | Start | Length | Start sector | End sector
———————————————————
1 | 0:01.30 | 2:48.63 | 105 | 12767
2 | 2:50.18 | 5:28.06 | 12768 | 37373
3 | 8:18.24 | 2:59.72 | 37374 | 50870
4 | 11:18.21 | 2:46.06 | 50871 | 63326
5 | 14:04.27 | 2:59.24 | 63327 | 76775
6 | 17:03.51 | 2:46.11 | 76776 | 89236
7 | 19:49.62 | 2:09.29 | 89237 | 98940
8 | 21:59.16 | 3:17.31 | 98941 | 113746
9 | 25:16.47 | 4:26.69 | 113747 | 133765
10 | 29:43.41 | 3:19.61 | 133766 | 148751
11 | 33:03.27 | 2:25.43 | 148752 | 159669
12 | 35:28.70 | 3:14.36 | 159670 | 174255
13 | 38:43.31 | 3:32.53 | 174256 | 190208
14 | 42:16.09 | 5:56.57 | 190209 | 216965
15 | 48:12.66 | 2:11.47 | 216966 | 226837

Track 1

Filename C:\EAC rips\X – At Home With You (Deluxe Edition) (Disc 2) (1985) (flac)\01. The Feel (Live At The Prince Of Wales, 1985).wav

Pre-gap length 0:00:03.30

Peak level 100.0 %
Track quality 100.0 %
Test CRC 378982DB
Copy CRC 378982DB
Accurately ripped (confidence 1) [E5E7B1BD]
Copy OK

Track 2

Filename C:\EAC rips\X – At Home With You (Deluxe Edition) (Disc 2) (1985) (flac)\02. Degenerate Boy (Live At The Prince Of Wales, 1985).wav

Peak level 100.0 %
Track quality 99.9 %
Test CRC 35E61200
Copy CRC 35E61200
Accurately ripped (confidence 1) [0F267C5A]
Copy OK

Track 3

Filename C:\EAC rips\X – At Home With You (Deluxe Edition) (Disc 2) (1985) (flac)\03. Simulated Lovers (Live At The Prince Of Wales, 1985).wav

Peak level 100.0 %
Track quality 99.9 %
Test CRC 813CEAAB
Copy CRC 813CEAAB
Accurately ripped (confidence 1) [C535A475]
Copy OK

Track 4

Filename C:\EAC rips\X – At Home With You (Deluxe Edition) (Disc 2) (1985) (flac)\04. Delinquent Cars (Live At The Prince Of Wales, 1985).wav

Peak level 100.0 %
Track quality 100.0 %
Test CRC 5AE2127A
Copy CRC 5AE2127A
Accurately ripped (confidence 1) [0DDB949B]
Copy OK

Track 5

Filename C:\EAC rips\X – At Home With You (Deluxe Edition) (Disc 2) (1985) (flac)\05. Good On Ya Baby (Live At The Prince Of Wales, 1985).wav

Peak level 100.0 %
Track quality 99.9 %
Test CRC C7DA62DD
Copy CRC C7DA62DD
Accurately ripped (confidence 1) [05E61EEC]
Copy OK

Track 6

Filename C:\EAC rips\X – At Home With You (Deluxe Edition) (Disc 2) (1985) (flac)\06. Goin’ Crazy (Live At The Prince Of Wales, 1985).wav

Peak level 100.0 %
Track quality 100.0 %
Test CRC D1767645
Copy CRC D1767645
Accurately ripped (confidence 1) [53A1E2C4]
Copy OK

Track 7

Filename C:\EAC rips\X – At Home With You (Deluxe Edition) (Disc 2) (1985) (flac)\07. Oxford Street Nick (Live At The Prince Of Wales, 1985).wav

Peak level 100.0 %
Track quality 100.0 %
Test CRC A3AB8F1F
Copy CRC A3AB8F1F
Accurately ripped (confidence 1) [A1729CDB]
Copy OK

Track 8

Filename C:\EAC rips\X – At Home With You (Deluxe Edition) (Disc 2) (1985) (flac)\08. She’s Gone (Live At The Prince Of Wales, 1985).wav

Peak level 100.0 %
Track quality 100.0 %
Test CRC 93F41C4F
Copy CRC 93F41C4F
Accurately ripped (confidence 1) [EC704C43]
Copy OK

Track 9

Filename C:\EAC rips\X – At Home With You (Deluxe Edition) (Disc 2) (1985) (flac)\09. Waiting (Live At The Prince Of Wales, 1985).wav

Peak level 100.0 %
Track quality 100.0 %
Test CRC 45D98882
Copy CRC 45D98882
Accurately ripped (confidence 1) [21C24834]
Copy OK

Track 10

Filename C:\EAC rips\X – At Home With You (Deluxe Edition) (Disc 2) (1985) (flac)\10. Dispstick (Live At The Prince Of Wales, 1985).wav

Peak level 100.0 %
Track quality 100.0 %
Test CRC 4FFC42A6
Copy CRC 4FFC42A6
Accurately ripped (confidence 1) [C2EEDD1B]
Copy OK

Track 11

Filename C:\EAC rips\X – At Home With You (Deluxe Edition) (Disc 2) (1985) (flac)\11. Suck Suck (Live At The Prince Of Wales, 1985).wav

Peak level 100.0 %
Track quality 100.0 %
Test CRC 297DC32E
Copy CRC 297DC32E
Accurately ripped (confidence 1) [C7EAEBC8]
Copy OK

Track 12

Filename C:\EAC rips\X – At Home With You (Deluxe Edition) (Disc 2) (1985) (flac)\12. Half Way Round The World (Live At The Prince Of Wales, 1985).wav

Peak level 100.0 %
Track quality 100.0 %
Test CRC CB918EC0
Copy CRC CB918EC0
Accurately ripped (confidence 1) [B4C35B91]
Copy OK

Track 13

Filename C:\EAC rips\X – At Home With You (Deluxe Edition) (Disc 2) (1985) (flac)\13. All Over Now (Live At The Prince Of Wales, 1985).wav

Peak level 100.0 %
Track quality 100.0 %
Test CRC 8C2FCFFC
Copy CRC 8C2FCFFC
Accurately ripped (confidence 1) [64BDF3D0]
Copy OK

Track 14

Filename C:\EAC rips\X – At Home With You (Deluxe Edition) (Disc 2) (1985) (flac)\14. T.V. Glue (Live At The Prince Of Wales, 1985).wav

Peak level 100.0 %
Track quality 100.0 %
Test CRC 22B88CA1
Copy CRC 22B88CA1
Accurately ripped (confidence 1) [2D0B4D06]
Copy OK

Track 15

Filename C:\EAC rips\X – At Home With You (Deluxe Edition) (Disc 2) (1985) (flac)\15. I Don’t Wanna Go Out (Live At The Prince Of Wales, 1985).wav

Peak level 100.0 %
Track quality 100.0 %
Test CRC 88E6A577
Copy CRC 88E6A577
Accurately ripped (confidence 1) [F8459218]
Copy OK

All tracks accurately ripped

No errors occurred

End of status report

REM GENRE Punk
REM DATE 1985
REM DISCID B10A5C0D
REM COMMENT “ExactAudioCopy v0.99pb5”
PERFORMER “X”
TITLE “At Home With You (Deluxe Edition) (Disc 1)”
FILE “01. The Feel.flac” WAVE
TRACK 01 AUDIO
TITLE “The Feel”
PERFORMER “X”
PREGAP 00:01:30
INDEX 01 00:00:00
FILE “02. T.V. Glue.flac” WAVE
TRACK 02 AUDIO
TITLE “T.V. Glue”
PERFORMER “X”
INDEX 01 00:00:00
FILE “03. Movin’ On.flac” WAVE
TRACK 03 AUDIO
TITLE “Movin’ On”
PERFORMER “X”
INDEX 01 00:00:00
FILE “04. Half Way Round The World.flac” WAVE
TRACK 04 AUDIO
TITLE “Half Way Round The World”
PERFORMER “X”
INDEX 01 00:00:00
FILE “05. You Say That You Love Me.flac” WAVE
TRACK 05 AUDIO
TITLE “You Say That You Love Me”
PERFORMER “X”
INDEX 01 00:00:00
FILE “06. Degenerate Boy.flac” WAVE
TRACK 06 AUDIO
TITLE “Degenerate Boy”
PERFORMER “X”
INDEX 01 00:00:00
FILE “07. All Over Now.flac” WAVE
TRACK 07 AUDIO
TITLE “All Over Now”
PERFORMER “X”
INDEX 01 00:00:00
FILE “08. At Home With You.flac” WAVE
TRACK 08 AUDIO
TITLE “At Home With You”
PERFORMER “X”
INDEX 01 00:00:00
FILE “09. Goin’ Crazy.flac” WAVE
TRACK 09 AUDIO
TITLE “Goin’ Crazy”
PERFORMER “X”
INDEX 01 00:00:00
FILE “10. Oxford Street Nick.flac” WAVE
TRACK 10 AUDIO
TITLE “Oxford Street Nick”
PERFORMER “X”
INDEX 01 00:00:00
FILE “11. Don’t Cry No Tears.flac” WAVE
TRACK 11 AUDIO
TITLE “Don’t Cry No Tears”
PERFORMER “X”
INDEX 01 00:00:00
FILE “12. She’s Gone.flac” WAVE
TRACK 12 AUDIO
TITLE “She’s Gone”
PERFORMER “X”
INDEX 01 00:00:00
FILE “13. El Salvador (Live At The Prince Of Wales, 1985).flac” WAVE
TRACK 13 AUDIO
TITLE “El Salvador (Live At The Prince Of Wales, 1985)”
PERFORMER “X”
INDEX 01 00:00:00

REM GENRE Punk
REM DATE 1985
REM DISCID C30BCF0F
REM COMMENT “ExactAudioCopy v0.99pb5”
PERFORMER “X”
TITLE “At Home With You (Deluxe Edition) (Disc 2)”
FILE “01. The Feel (Live At The Prince Of Wales, 1985).flac” WAVE
TRACK 01 AUDIO
TITLE “The Feel (Live At The Prince Of Wales, 1985)”
PERFORMER “X”
PREGAP 00:01:30
INDEX 01 00:00:00
FILE “02. Degenerate Boy (Live At The Prince Of Wales, 1985).flac” WAVE
TRACK 02 AUDIO
TITLE “Degenerate Boy (Live At The Prince Of Wales, 1985)”
PERFORMER “X”
INDEX 01 00:00:00
FILE “03. Simulated Lovers (Live At The Prince Of Wales, 1985).flac” WAVE
TRACK 03 AUDIO
TITLE “Simulated Lovers (Live At The Prince Of Wales, 1985)”
PERFORMER “X”
INDEX 01 00:00:00
FILE “04. Delinquent Cars (Live At The Prince Of Wales, 1985).flac” WAVE
TRACK 04 AUDIO
TITLE “Delinquent Cars (Live At The Prince Of Wales, 1985)”
PERFORMER “X”
INDEX 01 00:00:00
FILE “05. Good On Ya Baby (Live At The Prince Of Wales, 1985).flac” WAVE
TRACK 05 AUDIO
TITLE “Good On Ya Baby (Live At The Prince Of Wales, 1985)”
PERFORMER “X”
INDEX 01 00:00:00
FILE “06. Goin’ Crazy (Live At The Prince Of Wales, 1985).flac” WAVE
TRACK 06 AUDIO
TITLE “Goin’ Crazy (Live At The Prince Of Wales, 1985)”
PERFORMER “X”
INDEX 01 00:00:00
FILE “07. Oxford Street Nick (Live At The Prince Of Wales, 1985).flac” WAVE
TRACK 07 AUDIO
TITLE “Oxford Street Nick (Live At The Prince Of Wales, 1985)”
PERFORMER “X”
INDEX 01 00:00:00
FILE “08. She’s Gone (Live At The Prince Of Wales, 1985).flac” WAVE
TRACK 08 AUDIO
TITLE “She’s Gone (Live At The Prince Of Wales, 1985)”
PERFORMER “X”
INDEX 01 00:00:00
FILE “09. Waiting (Live At The Prince Of Wales, 1985).flac” WAVE
TRACK 09 AUDIO
TITLE “Waiting (Live At The Prince Of Wales, 1985)”
PERFORMER “X”
INDEX 01 00:00:00
FILE “10. Dispstick (Live At The Prince Of Wales, 1985).flac” WAVE
TRACK 10 AUDIO
TITLE “Dispstick (Live At The Prince Of Wales, 1985)”
PERFORMER “X”
INDEX 01 00:00:00
FILE “11. Suck Suck (Live At The Prince Of Wales, 1985).flac” WAVE
TRACK 11 AUDIO
TITLE “Suck Suck (Live At The Prince Of Wales, 1985)”
PERFORMER “X”
INDEX 01 00:00:00
FILE “12. Half Way Round The World (Live At The Prince Of Wales, 1985).flac” WAVE
TRACK 12 AUDIO
TITLE “Half Way Round The World (Live At The Prince Of Wales, 1985)”
PERFORMER “X”
INDEX 01 00:00:00
FILE “13. All Over Now (Live At The Prince Of Wales, 1985).flac” WAVE
TRACK 13 AUDIO
TITLE “All Over Now (Live At The Prince Of Wales, 1985)”
PERFORMER “X”
INDEX 01 00:00:00
FILE “14. T.V. Glue (Live At The Prince Of Wales, 1985).flac” WAVE
TRACK 14 AUDIO
TITLE “T.V. Glue (Live At The Prince Of Wales, 1985)”
PERFORMER “X”
INDEX 01 00:00:00
FILE “15. I Don’t Wanna Go Out (Live At The Prince Of Wales, 1985).flac” WAVE
TRACK 15 AUDIO
TITLE “I Don’t Wanna Go Out (Live At The Prince Of Wales, 1985)”
PERFORMER “X”
INDEX 01 00:00:00


Leave a Reply

Your email address will not be published. Required fields are marked *

This site uses Akismet to reduce spam. Learn how your comment data is processed.