WIZO – Herrénhandtasche




No Cover available

Artist: WIZO
Year: 1995
Genre: Punk
Notes: Discogs
Add. Notes:
Watch Songs on: YouTube
Cover incl.: No
Encoder: FLAC
Bitrate: ~900 kBit/s (44.1 kHz/16 Bit/s)
Log & Cue incl.: No, but seperate Tracks
Size: 174,5 MB
Password: “slam” (without ” “)


All Downloads/Hosters are compatible

Download 1
KatFile.com
Turbobit.net
FileFactory.com
Rapidgator.net
Download 2
KatFile.com
Turbobit.net
FileFactory.com
Rapidgator.net

Tracklist:

1 Intro 0:18
2 9247 3:15
3 Poupee De Cire 2:25
4 Quadrat Im Kreis 3:25
5 Cruising 2:15
6 [Anrufbeantworter] 0:26
7 Herrenhandtasche 4:34
8 Closet 2:40
9 Brief/Telefon/Tür 4:04
10 Do You Remember Me? 2:20

EAC-Log, CUE-Sheed & NFO:

Click to open spoiler
Exact Audio Copy V1.3 from 2. September 2016

EAC extraction logfile from 9. March 2019, 17:08

WIZO / Herrénhandtasche

Used drive : HL-DT-STDVDRAM GUE0N Adapter: 1 ID: 0

Read mode : Secure
Utilize accurate stream : Yes
Defeat audio cache : Yes
Make use of C2 pointers : No

Read offset correction : 102
Overread into Lead-In and Lead-Out : No
Fill up missing offset samples with silence : Yes
Delete leading and trailing silent blocks : No
Null samples used in CRC calculations : Yes
Used interface : Native Win32 interface for Win NT & 2000
Gap handling : Appended to previous track

Used output format : User Defined Encoder
Selected bitrate : 1024 kBit/s
Quality : High
Add ID3 tag : No
Command line compressor : C:\Program Files (x86)\Exact Audio Copy\FLAC\FLAC.EXE
Additional command line options : -8 -V -T “ARTIST=%artist%” -T “TITLE=%title%” -T “ALBUM=%albumtitle%” -T “DATE=%year%” -T “TRACKNUMBER=%tracknr%” -T “GENRE=%genre%” -T “COMMENT=%comment%” -T “BAND=%albuminterpret%” -T “COMPOSER=%composer%” %haslyrics%–tag-from-file=LYRICS=”%lyricsfile%”%haslyrics% -T “DISCNUMBER=%cdnumber%” -T “TOTALDISCS=%totalcds%” -T “TOTALTRACKS=%numtracks%” %hascover%–picture=”%coverfile%”%hascover% %source% -o %dest%

TOC of the extracted CD

Track | Start | Length | Start sector | End sector
———————————————————
1 | 0:00.00 | 0:18.48 | 0 | 1397
2 | 0:18.48 | 3:14.50 | 1398 | 15997
3 | 3:33.23 | 2:27.05 | 15998 | 27027
4 | 6:00.28 | 3:27.40 | 27028 | 42592
5 | 9:27.68 | 2:15.40 | 42593 | 52757
6 | 11:43.33 | 0:26.38 | 52758 | 54745
7 | 12:09.71 | 4:31.42 | 54746 | 75112
8 | 16:41.38 | 2:42.10 | 75113 | 87272
9 | 19:23.48 | 4:06.05 | 87273 | 105727
10 | 23:29.53 | 2:21.20 | 105728 | 116322

Track 1

Filename D:\Eigene Musik\WIZO\Herrénhandtasche\01. Intro.wav

Pre-gap length 0:00:02.00

Peak level 36.4 %
Extraction speed 0.3 X
Track quality 100.0 %
Copy CRC D25C7748
Accurately ripped (confidence 14) [C55FC036] (AR v2)
Copy OK

Track 2

Filename D:\Eigene Musik\WIZO\Herrénhandtasche\02. 9247.wav

Peak level 99.8 %
Extraction speed 1.0 X
Track quality 100.0 %
Copy CRC BA7D9BB5
Accurately ripped (confidence 14) [E8B78A66] (AR v2)
Copy OK

Track 3

Filename D:\Eigene Musik\WIZO\Herrénhandtasche\03. Poupée de cire.wav

Peak level 99.9 %
Extraction speed 0.9 X
Track quality 99.9 %
Copy CRC 40F9FE0C
Accurately ripped (confidence 14) [30770D8D] (AR v2)
Copy OK

Track 4

Filename D:\Eigene Musik\WIZO\Herrénhandtasche\04. Quadrat im Kreis.wav

Pre-gap length 0:00:01.27

Peak level 99.7 %
Extraction speed 1.2 X
Track quality 100.0 %
Copy CRC C13BAADA
Accurately ripped (confidence 14) [F753B47F] (AR v2)
Copy OK

Track 5

Filename D:\Eigene Musik\WIZO\Herrénhandtasche\05. Cruising.wav

Pre-gap length 0:00:02.19

Peak level 99.9 %
Extraction speed 1.2 X
Track quality 100.0 %
Copy CRC C133AD06
Accurately ripped (confidence 14) [4F8AEBD1] (AR v2)
Copy OK

Track 6

Filename D:\Eigene Musik\WIZO\Herrénhandtasche\06. Anrufbeantworter.wav

Pre-gap length 0:00:00.24

Peak level 38.8 %
Extraction speed 0.6 X
Track quality 100.0 %
Copy CRC AF781F3E
Accurately ripped (confidence 14) [BFA87866] (AR v2)
Copy OK

Track 7

Filename D:\Eigene Musik\WIZO\Herrénhandtasche\07. Herrénhandtasche.wav

Peak level 99.7 %
Extraction speed 1.3 X
Track quality 99.9 %
Copy CRC 003A1859
Accurately ripped (confidence 14) [5F1F49E5] (AR v2)
Copy OK

Track 8

Filename D:\Eigene Musik\WIZO\Herrénhandtasche\08. Closet.wav

Pre-gap length 0:00:00.67

Peak level 99.7 %
Extraction speed 1.4 X
Track quality 100.0 %
Copy CRC 48DA89AC
Accurately ripped (confidence 14) [E7D9F607] (AR v2)
Copy OK

Track 9

Filename D:\Eigene Musik\WIZO\Herrénhandtasche\09. Brief,Telefon,Tür.wav

Pre-gap length 0:00:01.22

Peak level 99.9 %
Extraction speed 1.6 X
Track quality 100.0 %
Copy CRC 53E0B464
Accurately ripped (confidence 14) [752A42AA] (AR v2)
Copy OK

Track 10

Filename D:\Eigene Musik\WIZO\Herrénhandtasche\10. Do you remember me.wav

Pre-gap length 0:00:01.29

Peak level 99.9 %
Extraction speed 1.5 X
Track quality 100.0 %
Copy CRC D910C408
Accurately ripped (confidence 14) [E7F86793] (AR v2)
Copy OK

All tracks accurately ripped

No errors occurred

End of status report

—- CUETools DB Plugin V2.1.6

[CTDB TOCID: ReKKjQA2RF21w8fYc0w5K7VP2g4-] found
Submit result: ReKKjQA2RF21w8fYc0w5K7VP2g4- has been confirmed
Track | CTDB Status
1 | (116/119) Accurately ripped
2 | (114/119) Accurately ripped
3 | (115/119) Accurately ripped
4 | (118/119) Accurately ripped
5 | (118/119) Accurately ripped
6 | (114/119) Accurately ripped
7 | (115/119) Accurately ripped
8 | (117/119) Accurately ripped
9 | (118/119) Accurately ripped
10 | (119/119) Accurately ripped

==== Log checksum E0422E3E523B37DFCBEABB86FE0DD5591837EFB8C09CC296EAE72C190B62AFA1 ====

REM GENRE Punk
REM DATE 1995
REM DISCID 5A060E0A
REM COMMENT “ExactAudioCopy v1.3”
CATALOG 0000000000000
PERFORMER “WIZO”
TITLE “Herrénhandtasche”
REM COMPOSER “”
FILE “WIZO\Herrénhandtasche\01. Intro.wav” WAVE
TRACK 01 AUDIO
TITLE “Intro”
PERFORMER “WIZO”
REM COMPOSER “”
INDEX 01 00:00:00
FILE “WIZO\Herrénhandtasche\02. 9247.wav” WAVE
TRACK 02 AUDIO
TITLE “9247”
PERFORMER “WIZO”
REM COMPOSER “”
INDEX 01 00:00:00
FILE “WIZO\Herrénhandtasche\03. Poupée de cire.wav” WAVE
TRACK 03 AUDIO
TITLE “Poupée de cire”
PERFORMER “WIZO”
REM COMPOSER “”
INDEX 01 00:00:00
TRACK 04 AUDIO
TITLE “Quadrat im Kreis”
PERFORMER “WIZO”
REM COMPOSER “”
INDEX 00 02:25:53
FILE “WIZO\Herrénhandtasche\04. Quadrat im Kreis.wav” WAVE
INDEX 01 00:00:00
TRACK 05 AUDIO
TITLE “Cruising”
PERFORMER “WIZO”
REM COMPOSER “”
INDEX 00 03:25:21
FILE “WIZO\Herrénhandtasche\05. Cruising.wav” WAVE
INDEX 01 00:00:00
TRACK 06 AUDIO
TITLE “Anrufbeantworter”
PERFORMER “WIZO”
REM COMPOSER “”
INDEX 00 02:15:16
FILE “WIZO\Herrénhandtasche\06. Anrufbeantworter.wav” WAVE
INDEX 01 00:00:00
FILE “WIZO\Herrénhandtasche\07. Herrénhandtasche.wav” WAVE
TRACK 07 AUDIO
TITLE “Herrénhandtasche”
PERFORMER “WIZO”
REM COMPOSER “”
INDEX 01 00:00:00
TRACK 08 AUDIO
TITLE “Closet”
PERFORMER “WIZO”
REM COMPOSER “”
INDEX 00 04:30:50
FILE “WIZO\Herrénhandtasche\08. Closet.wav” WAVE
INDEX 01 00:00:00
TRACK 09 AUDIO
TITLE “Brief/Telefon/Tür”
PERFORMER “WIZO”
REM COMPOSER “”
INDEX 00 02:40:63
FILE “WIZO\Herrénhandtasche\09. Brief,Telefon,Tür.wav” WAVE
INDEX 01 00:00:00
TRACK 10 AUDIO
TITLE “Do you remember me?”
PERFORMER “WIZO”
REM COMPOSER “”
INDEX 00 04:04:51
FILE “WIZO\Herrénhandtasche\10. Do you remember me.wav” WAVE
INDEX 01 00:00:00


Leave a Reply

Your email address will not be published. Required fields are marked *

This site uses Akismet to reduce spam. Learn how your comment data is processed.