Within Temptation – Resist




Within Temptation – Resist

Artist: Within Temptation
Year: 2019
Genre: Rock
Notes: Discogs
Add. Notes:
Watch Songs on: YouTube
Cover incl.: Yes
Encoder: FLAC
Bitrate: ~1100 kBit/s (44.1 kHz/16 Bit/s)
Log & Cue incl.: Yes/Yes
Size: 355,27 MB
Password: “slam” (without ” “)


All Downloads/Hosters are compatible

Download 1
KatFile.com
Turbobit.net
FileFactory.com
Rapidgator.net
Download 2
KatFile.com
Turbobit.net
FileFactory.com
Rapidgator.net

Tracklist:

1 The Reckoning
2 Endless War 
3 Raise Your Banner
4 Supernova 
5 Holy Ground 
6 In Vain 
7 Firelight
8 Mad World 
9 Mercy Mirror 
10 Trophy Hunter

EAC-Log, CUE-Sheed & NFO:

Click to open spoiler
Exact Audio Copy V1.3 from 2. September 2016

EAC extraction logfile from 3. February 2019, 16:09

Within Temptation / Resist

Used drive : TSSTcorpCDDVDW SU-208FB Adapter: 1 ID: 0

Read mode : Secure
Utilize accurate stream : Yes
Defeat audio cache : Yes
Make use of C2 pointers : No

Read offset correction : 6
Overread into Lead-In and Lead-Out : No
Fill up missing offset samples with silence : Yes
Delete leading and trailing silent blocks : No
Null samples used in CRC calculations : Yes
Used interface : Native Win32 interface for Win NT & 2000
Gap handling : Appended to previous track

Used output format : User Defined Encoder
Selected bitrate : 1024 kBit/s
Quality : High
Add ID3 tag : No
Command line compressor : C:\Program Files (x86)\Exact Audio Copy\FLAC\FLAC.EXE
Additional command line options : -8 -V -T “artist=%artist%” -T “title=%title%” -T “album=%albumtitle%” -T “date=%year%” -T “tracknumber=%tracknr%” -T “genre=%genre%” %source%

TOC of the extracted CD

Track | Start | Length | Start sector | End sector
———————————————————
1 | 0:00.00 | 4:12.53 | 0 | 18952
2 | 4:12.53 | 4:10.72 | 18953 | 37774
3 | 8:23.50 | 5:34.18 | 37775 | 62842
4 | 13:57.68 | 5:36.06 | 62843 | 88048
5 | 19:33.74 | 4:11.26 | 88049 | 106899
6 | 23:45.25 | 4:25.53 | 106900 | 126827
7 | 28:11.03 | 4:49.09 | 126828 | 148511
8 | 33:00.12 | 5:01.20 | 148512 | 171106
9 | 38:01.32 | 3:50.18 | 171107 | 188374
10 | 41:51.50 | 5:51.63 | 188375 | 214762

Track 1

Filename C:\EAC\Within Temptation – 2019 – Resist [Spinefarm Records, 2577019005] [CD FLAC]\01 The Reckoning (feat. Jacoby Shaddix).wav

Pre-gap length 0:00:02.00

Peak level 100.0 %
Extraction speed 2.2 X
Track quality 100.0 %
Test CRC 0435CF9B
Copy CRC 0435CF9B
Track not present in AccurateRip database
Copy OK

Track 2

Filename C:\EAC\Within Temptation – 2019 – Resist [Spinefarm Records, 2577019005] [CD FLAC]\02 Endless War.wav

Pre-gap length 0:00:01.45

Peak level 99.1 %
Extraction speed 1.9 X
Track quality 99.9 %
Test CRC 24005092
Copy CRC 24005092
Track not present in AccurateRip database
Copy OK

Track 3

Filename C:\EAC\Within Temptation – 2019 – Resist [Spinefarm Records, 2577019005] [CD FLAC]\03 Raise Your Banner (feat. Anders Fridén).wav

Pre-gap length 0:00:01.45

Peak level 99.2 %
Extraction speed 2.7 X
Track quality 100.0 %
Test CRC 99CAD6F5
Copy CRC 99CAD6F5
Track not present in AccurateRip database
Copy OK

Track 4

Filename C:\EAC\Within Temptation – 2019 – Resist [Spinefarm Records, 2577019005] [CD FLAC]\04 Supernova.wav

Peak level 99.0 %
Extraction speed 3.0 X
Track quality 100.0 %
Test CRC E48ED4BB
Copy CRC E48ED4BB
Track not present in AccurateRip database
Copy OK

Track 5

Filename C:\EAC\Within Temptation – 2019 – Resist [Spinefarm Records, 2577019005] [CD FLAC]\05 Holy Ground.wav

Peak level 99.6 %
Extraction speed 2.5 X
Track quality 99.9 %
Test CRC 7BEBFBCB
Copy CRC 7BEBFBCB
Track not present in AccurateRip database
Copy OK

Track 6

Filename C:\EAC\Within Temptation – 2019 – Resist [Spinefarm Records, 2577019005] [CD FLAC]\06 In Vain.wav

Pre-gap length 0:00:00.39

Peak level 98.9 %
Extraction speed 3.3 X
Track quality 100.0 %
Test CRC 18E5602D
Copy CRC 18E5602D
Track not present in AccurateRip database
Copy OK

Track 7

Filename C:\EAC\Within Temptation – 2019 – Resist [Spinefarm Records, 2577019005] [CD FLAC]\07 Firelight (feat. Jasper Steverlinck).wav

Pre-gap length 0:00:00.59

Peak level 99.0 %
Extraction speed 3.5 X
Track quality 100.0 %
Test CRC FF3CCB66
Copy CRC FF3CCB66
Track not present in AccurateRip database
Copy OK

Track 8

Filename C:\EAC\Within Temptation – 2019 – Resist [Spinefarm Records, 2577019005] [CD FLAC]\08 Mad World.wav

Pre-gap length 0:00:02.16

Peak level 99.0 %
Extraction speed 3.8 X
Track quality 100.0 %
Test CRC 8CD30E5A
Copy CRC 8CD30E5A
Track not present in AccurateRip database
Copy OK

Track 9

Filename C:\EAC\Within Temptation – 2019 – Resist [Spinefarm Records, 2577019005] [CD FLAC]\09 Mercy Mirror.wav

Pre-gap length 0:00:03.64

Peak level 98.9 %
Extraction speed 3.8 X
Track quality 100.0 %
Test CRC 6047B9C9
Copy CRC 6047B9C9
Track not present in AccurateRip database
Copy OK

Track 10

Filename C:\EAC\Within Temptation – 2019 – Resist [Spinefarm Records, 2577019005] [CD FLAC]\10 Trophy Hunter.wav

Pre-gap length 0:00:01.16

Peak level 98.9 %
Extraction speed 4.2 X
Track quality 100.0 %
Test CRC 7157FAD0
Copy CRC 7157FAD0
Track not present in AccurateRip database
Copy OK

None of the tracks are present in the AccurateRip database

No errors occurred

End of status report

—- CUETools DB Plugin V2.1.6

[CTDB TOCID: ci6aiubuUuxrAomTQjnUUkw9ow4-] found
Submit result: ci6aiubuUuxrAomTQjnUUkw9ow4- has been confirmed
Track | CTDB Status
1 | (108/109) Accurately ripped
2 | (108/109) Accurately ripped
3 | (108/109) Accurately ripped
4 | (108/109) Accurately ripped
5 | (108/109) Accurately ripped
6 | (108/109) Accurately ripped
7 | (108/109) Accurately ripped
8 | (108/109) Accurately ripped
9 | (108/109) Accurately ripped
10 | (108/109) Accurately ripped

==== Log checksum 040D842996886DA08BC83D712B98284B1EC198510EAAD7BF9871DFCD29220886 ====

——————————

REM GENRE Metal
REM DATE 2019
REM DISCID 880B2F0A
REM COMMENT “ExactAudioCopy v1.3”
CATALOG 0602577019005
PERFORMER “Within Temptation”
TITLE “Resist”
REM COMPOSER “”
FILE “01 The Reckoning (feat. Jacoby Shaddix).wav” WAVE
TRACK 01 AUDIO
TITLE “The Reckoning (feat. Jacoby Shaddix)”
PERFORMER “Within Temptation”
REM COMPOSER “”
ISRC NLR261800010
INDEX 01 00:00:00
TRACK 02 AUDIO
TITLE “Endless War”
PERFORMER “Within Temptation”
REM COMPOSER “”
ISRC NLR261800011
INDEX 00 04:11:08
FILE “02 Endless War.wav” WAVE
INDEX 01 00:00:00
TRACK 03 AUDIO
TITLE “Raise Your Banner (feat. Anders Fridén)”
PERFORMER “Within Temptation”
REM COMPOSER “”
ISRC NLR261800012
INDEX 00 04:09:27
FILE “03 Raise Your Banner (feat. Anders Fridén).wav” WAVE
INDEX 01 00:00:00
FILE “04 Supernova.wav” WAVE
TRACK 04 AUDIO
TITLE “Supernova”
PERFORMER “Within Temptation”
REM COMPOSER “”
ISRC NLR261800012
INDEX 01 00:00:00
FILE “05 Holy Ground.wav” WAVE
TRACK 05 AUDIO
TITLE “Holy Ground”
PERFORMER “Within Temptation”
REM COMPOSER “”
ISRC NLR261800013
INDEX 01 00:00:00
TRACK 06 AUDIO
TITLE “In Vain”
PERFORMER “Within Temptation”
REM COMPOSER “”
ISRC NLR261800015
INDEX 00 04:10:62
FILE “06 In Vain.wav” WAVE
INDEX 01 00:00:00
TRACK 07 AUDIO
TITLE “Firelight (feat. Jasper Steverlinck)”
PERFORMER “Within Temptation”
REM COMPOSER “”
ISRC NLR261800016
INDEX 00 04:24:69
FILE “07 Firelight (feat. Jasper Steverlinck).wav” WAVE
INDEX 01 00:00:00
TRACK 08 AUDIO
TITLE “Mad World”
PERFORMER “Within Temptation”
REM COMPOSER “”
ISRC NLR261800017
INDEX 00 04:46:68
FILE “08 Mad World.wav” WAVE
INDEX 01 00:00:00
TRACK 09 AUDIO
TITLE “Mercy Mirror”
PERFORMER “Within Temptation”
REM COMPOSER “”
ISRC NLR261800018
INDEX 00 04:57:31
FILE “09 Mercy Mirror.wav” WAVE
INDEX 01 00:00:00
TRACK 10 AUDIO
TITLE “Trophy Hunter”
PERFORMER “Within Temptation”
REM COMPOSER “”
ISRC NLR261800019
INDEX 00 03:49:02
FILE “10 Trophy Hunter.wav” WAVE
INDEX 01 00:00:00


Leave a Reply

Your email address will not be published. Required fields are marked *

This site uses Akismet to reduce spam. Learn how your comment data is processed.