Witchcraft – The Alchemist




Artist: Witchcraft
Year: 2007
Genre: Metal
Notes: Discogs
Add. Notes:
Cover incl.: Yes
Encoder: FLAC
Bitrate: ~900 kBit/s (44.1 kHz/16 Bit/s)
Log & Cue incl.: Yes
Size: 281,01 MB
Password: “slam” (without ” “)


All Downloads/Hosters are compatible

Download 1
Turbobit.net
Rapidgator.net
UploadEver.com
JustUpload.io
UsersDrive.com
Download 2
Turbobit.net
Rapidgator.net
UploadEver.com
JustUpload.io
UsersDrive.com
Download 3
Turbobit.net
Rapidgator.net
UploadEver.com
JustUpload.io
UsersDrive.com

Tracklist:

1 - Walk Between The Lines - 3:24
2 - If Crimson Was Your Colour - 3:47
3 - Leva - 4:33
4 - Hey Doctor - 5:12
5 - Samaritan Burden - 6:27
6 - Remembered - 5:14
7 - The Alchemist - 14:36

EAC-Log, CUE-Sheed & NFO:

Click to open spoiler
EAC extraction logfile from 11. April 2008, 10:59 for CD
Witchcraft / The Alchemist

Used drive : LITE-ON DVDRW LH-20A1H Adapter: 0 ID: 0
Read mode : Secure with NO C2, accurate stream, disable cache
Read offset correction : 6
Overread into Lead-In and Lead-Out : No

Used output format : Internal WAV Routines
44.100 Hz; 16 Bit; Stereo

Other options :
Fill up missing offset samples with silence : Yes
Delete leading and trailing silent blocks : No
Native Win32 interface for Win NT & 2000

Range status and errors
Selected range
Filename C:\blog\upload\W07TA\Witchcraft – The Alchemist\Witchcraft – The Alchemist.wav

Peak level 100.0 %
Range quality 99.9 %
CRC F96B5BF1
Copy OK

No errors occured

End of status report

REM GENRE Progressive/Stoner
REM DATE 2007
REM DISCID 4B0A3007
REM COMMENT “ExactAudioCopy v0.95b4”
PERFORMER “Witchcraft”
TITLE “The Alchemist”
FILE “Witchcraft – The Alchemist.flac” WAVE
TRACK 01 AUDIO
TITLE “Walk Between The Lines”
PERFORMER “Witchcraft”
INDEX 01 00:00:00
TRACK 02 AUDIO
TITLE “If Crimson Was You Colour”
PERFORMER “Witchcraft”
INDEX 00 03:24:20
INDEX 01 03:26:20
TRACK 03 AUDIO
TITLE “Leva”
PERFORMER “Witchcraft”
INDEX 00 07:13:40
INDEX 01 07:15:40
TRACK 04 AUDIO
TITLE “Hey Doctor”
PERFORMER “Witchcraft”
INDEX 00 11:49:36
INDEX 01 11:51:37
TRACK 05 AUDIO
TITLE “Samaritan Burden”
PERFORMER “Witchcraft”
INDEX 00 17:04:10
INDEX 01 17:06:10
TRACK 06 AUDIO
TITLE “Remembered”
PERFORMER “Witchcraft”
INDEX 00 23:33:31
INDEX 01 23:35:31
TRACK 07 AUDIO
TITLE “The Alchemist”
PERFORMER “Witchcraft”
INDEX 00 28:49:69
INDEX 01 28:51:69

Leave a Reply

Your email address will not be published. Required fields are marked *

Enter the text from the image below
 

This site uses Akismet to reduce spam. Learn how your comment data is processed.