Wings – Wings Over America




No Cover available


Artist: Wings
Year: 1976/1988
Genre: Rock
Notes: Discogs
Add. Notes:
Watch Songs on: YouTube
Cover incl.: Yes
Encoder: FLAC
Bitrate: ~800 kBit/s (44.1 kHz/16 Bit/s)
Log & Cue incl.: Yes/Yes
Size: 731,6 MB
Password: “slam” (without ” “)


All Downloads/Hosters are compatible

Download 1
KatFile.com
Turbobit.net
Rapidgator.net
FileFactory.com
Download 2
KatFile.com
Turbobit.net
Rapidgator.net
FileFactory.com

Tracklist:

1-1 Venus And Mars · Rock Show · Jet 10:19
1-2 Let Me Roll It 3:44
1-3 Spirits Of Ancient Egypt 4:05
1-4 Medicine Jar 4:06
1-5 Maybe I'm Amazed 5:20
1-6 Call Me Back Again 5:15
1-7 Lady Madonna 2:37
1-8 The Long And Winding Road 4:28
1-9 Live And Let Die 3:34
1-10 Picasso's Last Words 1:53
1-11 Richard Cory 3:05
1-12 Bluebird 3:43
1-13 I've Just Seen A Face 2:11
1-14 Blackbird 2:27
1-15 Yesterday 1:49

2-1 You Gave Me The Answer 2:06
2-2 Magneto And Titanium Man 3:21
2-3 Go Now 3:46
2-4 My Love 4:14
2-5 Listen To What The Man Said 3:40
2-6 Let 'Em In 4:08
2-7 Time To Hide 4:55
2-8 Silly Love Songs 6:05
2-9 Beware My Love 4:58
2-10 Letting Go 4:33
2-11 Band On The Run 5:46
2-12 Hi Hi Hi 3:48
2-13 Soily 5:44

EAC-Log, CUE-Sheed & NFO:

Click to open spoiler
Exact Audio Copy V0.99 prebeta 5 from 4. May 2009

Отчёт EAC об извлечении, выполненном 19. февраля 2011, 17:36

Wings / Wings Over America, Disc One

Дисковод: Optiarc DVD RW AD-7240S Adapter: 1 ID: 0

Режим чтения : Достоверность
Использование точного потока : Да
Отключение кэша аудио : Да
Использование указателей C2 : Нет

Коррекция смещения при чтении : 48
Способность читать области Lead-in и Lead-out : Нет
Заполнение пропущенных сэмплов тишиной : Да
Удаление блоков с тишиной в начале и конце : Нет
При вычислениях CRC использовались нулевые сэмплы : Да
Интерфейс : Встроенный Win32-интерфейс для Win NT/2000

Выходной формат : Пользовательский кодировщик
Выбранный битрейт : 768 kBit/s
Качество : Высокий
Добавление ID3-тэга : Нет
Утилита сжатия : C:\Program Files\Exact Audio Copy\FLAC\FLAC.EXE
Дополнительные параметры : -6 -V -T “ARTIST=%a” -T “TITLE=%t” -T “ALBUM=%g” -T “DATE=%y” -T “TRACKNUMBER=%n” -T “GENRE=%m” -T “COMMENT=%e” %s -o %d

TOC извлечённого CD

Трек | Старт | Длительность | Начальный сектор | Конечный сектор
———————————————————————
1 | 0:00.33 | 10:19.72 | 33 | 46529
2 | 10:20.30 | 3:44.60 | 46530 | 63389
3 | 14:05.15 | 4:05.38 | 63390 | 81802
4 | 18:10.53 | 4:06.27 | 81803 | 100279
5 | 22:17.05 | 5:20.30 | 100280 | 124309
6 | 27:37.35 | 5:15.63 | 124310 | 147997
7 | 32:53.23 | 2:37.32 | 147998 | 159804
8 | 35:30.55 | 4:28.50 | 159805 | 179954
9 | 39:59.30 | 3:34.00 | 179955 | 196004
10 | 43:33.30 | 1:53.40 | 196005 | 204519
11 | 45:26.70 | 3:05.08 | 204520 | 218402
12 | 48:32.03 | 3:43.37 | 218403 | 235164
13 | 52:15.40 | 2:11.35 | 235165 | 245024
14 | 54:27.00 | 2:27.23 | 245025 | 256072
15 | 56:54.23 | 1:49.25 | 256073 | 264272

Характеристики диапазона извлечения и сообщения об ошибках

Выбранный диапазон

Имя файла E:\Paul McCartney\1976 Wings Over America\Cd1\Wings – Wings Over America, Disc One.wav

Пиковый уровень 97.7 %
Качество диапазона 100.0 %
CRC теста 94CA6BD6
CRC копии 94CA6BD6
Копирование… OK

Ошибок не произошло

AccurateRip: сводка

Трек 1 точное извлечение (доверие 2) [5177A1F3]
Трек 2 точное извлечение (доверие 2) [86EC9C21]
Трек 3 точное извлечение (доверие 2) [09396DBF]
Трек 4 точное извлечение (доверие 2) [C7D9DF9F]
Трек 5 точное извлечение (доверие 2) [C8CB55D6]
Трек 6 точное извлечение (доверие 2) [4F027554]
Трек 7 точное извлечение (доверие 2) [CEBED4C0]
Трек 8 точное извлечение (доверие 2) [F7D0A73E]
Трек 9 точное извлечение (доверие 2) [A9A83BBE]
Трек 10 точное извлечение (доверие 2) [F29C8DBB]
Трек 11 точное извлечение (доверие 2) [4171A631]
Трек 12 точное извлечение (доверие 2) [5104AAAB]
Трек 13 точное извлечение (доверие 2) [F1819908]
Трек 14 точное извлечение (доверие 2) [B38259BC]
Трек 15 точное извлечение (доверие 2) [DE5DE11F]

Все треки извлечены точно

Конец отчёта

Exact Audio Copy V0.99 prebeta 5 from 4. May 2009

Отчёт EAC об извлечении, выполненном 19. февраля 2011, 18:06

Wings / Wings Over America, Disc Two

Дисковод: Optiarc DVD RW AD-7240S Adapter: 1 ID: 0

Режим чтения : Достоверность
Использование точного потока : Да
Отключение кэша аудио : Да
Использование указателей C2 : Нет

Коррекция смещения при чтении : 48
Способность читать области Lead-in и Lead-out : Нет
Заполнение пропущенных сэмплов тишиной : Да
Удаление блоков с тишиной в начале и конце : Нет
При вычислениях CRC использовались нулевые сэмплы : Да
Интерфейс : Встроенный Win32-интерфейс для Win NT/2000

Выходной формат : Пользовательский кодировщик
Выбранный битрейт : 768 kBit/s
Качество : Высокий
Добавление ID3-тэга : Нет
Утилита сжатия : C:\Program Files\Exact Audio Copy\FLAC\FLAC.EXE
Дополнительные параметры : -6 -V -T “ARTIST=%a” -T “TITLE=%t” -T “ALBUM=%g” -T “DATE=%y” -T “TRACKNUMBER=%n” -T “GENRE=%m” -T “COMMENT=%e” %s -o %d

TOC извлечённого CD

Трек | Старт | Длительность | Начальный сектор | Конечный сектор
———————————————————————
1 | 0:00.32 | 2:06.15 | 32 | 9496
2 | 2:06.47 | 3:21.25 | 9497 | 24596
3 | 5:27.72 | 3:46.55 | 24597 | 41601
4 | 9:14.52 | 4:14.43 | 41602 | 60694
5 | 13:29.20 | 3:40.52 | 60695 | 77246
6 | 17:09.72 | 4:08.35 | 77247 | 95881
7 | 21:18.32 | 4:55.33 | 95882 | 118039
8 | 26:13.65 | 6:05.02 | 118040 | 145416
9 | 32:18.67 | 4:58.48 | 145417 | 167814
10 | 37:17.40 | 4:33.60 | 167815 | 188349
11 | 41:51.25 | 5:46.50 | 188350 | 214349
12 | 47:38.00 | 3:48.40 | 214350 | 231489
13 | 51:26.40 | 5:44.30 | 231490 | 257319

Характеристики диапазона извлечения и сообщения об ошибках

Выбранный диапазон

Имя файла E:\Paul McCartney\1976 Wings Over America\Cd2\Wings – Wings Over America, Disc Two.wav

Пиковый уровень 97.7 %
Качество диапазона 100.0 %
CRC теста FBCB1BFD
CRC копии FBCB1BFD
Копирование… OK

Ошибок не произошло

AccurateRip: сводка

Трек 1 точное извлечение (доверие 2) [9558EF1B]
Трек 2 точное извлечение (доверие 2) [2B5FB37F]
Трек 3 точное извлечение (доверие 2) [3AA8DD35]
Трек 4 точное извлечение (доверие 2) [8419D358]
Трек 5 точное извлечение (доверие 2) [D090F50F]
Трек 6 точное извлечение (доверие 2) [19E38690]
Трек 7 точное извлечение (доверие 2) [069C1101]
Трек 8 точное извлечение (доверие 2) [F26993B9]
Трек 9 точное извлечение (доверие 2) [360D197C]
Трек 10 точное извлечение (доверие 2) [D42500C7]
Трек 11 точное извлечение (доверие 2) [063D84FE]
Трек 12 точное извлечение (доверие 2) [ADFE7B7A]
Трек 13 точное извлечение (доверие 2) [67C08334]

Все треки извлечены точно

Конец отчёта

REM GENRE Rock
REM DATE 1976
REM DISCID D60DC30F
REM COMMENT “ExactAudioCopy v0.99pb5”
PERFORMER “Wings”
TITLE “Wings Over America, Disc One”
FILE “Wings – Wings Over America, Disc One.flac” WAVE
TRACK 01 AUDIO
TITLE “Venus And Mars \ Rock Show \ Jet”
PERFORMER “Wings”
INDEX 00 00:00:00
INDEX 01 00:00:33
TRACK 02 AUDIO
TITLE “Let Me Roll It”
PERFORMER “Wings”
INDEX 00 10:20:28
INDEX 01 10:20:30
TRACK 03 AUDIO
TITLE “Spirits Of Ancient Egypt”
PERFORMER “Wings”
INDEX 01 14:05:15
TRACK 04 AUDIO
TITLE “Medicine Jar”
PERFORMER “Wings”
INDEX 01 18:10:53
TRACK 05 AUDIO
TITLE “Maybe I’m Amazed”
PERFORMER “Wings”
INDEX 01 22:17:05
TRACK 06 AUDIO
TITLE “Call Me Back Again”
PERFORMER “Wings”
INDEX 01 27:37:35
TRACK 07 AUDIO
TITLE “Lady Madonna”
PERFORMER “Wings”
INDEX 01 32:53:23
TRACK 08 AUDIO
TITLE “The Long And Winding Road”
PERFORMER “Wings”
INDEX 01 35:30:55
TRACK 09 AUDIO
TITLE “Live And Let Die”
PERFORMER “Wings”
INDEX 01 39:59:30
TRACK 10 AUDIO
TITLE “Picasso’s Last Words”
PERFORMER “Wings”
INDEX 01 43:33:30
TRACK 11 AUDIO
TITLE “Richard Cory”
PERFORMER “Wings”
INDEX 01 45:26:70
TRACK 12 AUDIO
TITLE “Bluebird”
PERFORMER “Wings”
INDEX 01 48:32:03
TRACK 13 AUDIO
TITLE “I’ve Just Seen A Face”
PERFORMER “Wings”
INDEX 01 52:15:40
TRACK 14 AUDIO
TITLE “Blackbird”
PERFORMER “Wings”
INDEX 01 54:27:00
TRACK 15 AUDIO
TITLE “Yesterday”
PERFORMER “Wings”
INDEX 00 56:54:20
INDEX 01 56:54:23

REM GENRE Rock
REM DATE 1976
REM DISCID A30D660D
REM COMMENT “ExactAudioCopy v0.99pb5”
PERFORMER “Wings”
TITLE “Wings Over America, Disc Two”
FILE “Wings – Wings Over America, Disc Two.flac” WAVE
TRACK 01 AUDIO
TITLE “You Gave Me The Answer”
PERFORMER “Wings”
INDEX 00 00:00:00
INDEX 01 00:00:32
TRACK 02 AUDIO
TITLE “Magneto And Titanium Man”
PERFORMER “Wings”
INDEX 01 02:06:47
TRACK 03 AUDIO
TITLE “Go Now”
PERFORMER “Wings”
INDEX 00 05:27:70
INDEX 01 05:27:72
TRACK 04 AUDIO
TITLE “My Love”
PERFORMER “Wings”
INDEX 01 09:14:52
TRACK 05 AUDIO
TITLE “Listen To What The Man Said”
PERFORMER “Wings”
INDEX 01 13:29:20
TRACK 06 AUDIO
TITLE “Let ’em In”
PERFORMER “Wings”
INDEX 01 17:09:72
TRACK 07 AUDIO
TITLE “Time To Hide”
PERFORMER “Wings”
INDEX 01 21:18:32
TRACK 08 AUDIO
TITLE “Silly Love Songs”
PERFORMER “Wings”
INDEX 00 26:13:62
INDEX 01 26:13:65
TRACK 09 AUDIO
TITLE “Beware My Love”
PERFORMER “Wings”
INDEX 01 32:18:67
TRACK 10 AUDIO
TITLE “Letting Go”
PERFORMER “Wings”
INDEX 01 37:17:40
TRACK 11 AUDIO
TITLE “Band On The Run”
PERFORMER “Wings”
INDEX 01 41:51:25
TRACK 12 AUDIO
TITLE “Hi Hi Hi”
PERFORMER “Wings”
INDEX 00 47:37:32
INDEX 01 47:38:00
TRACK 13 AUDIO
TITLE “Soily”
PERFORMER “Wings”
INDEX 00 51:26:37
INDEX 01 51:26:40


Leave a Reply

Your email address will not be published. Required fields are marked *

Enter the text from the image below
 

This site uses Akismet to reduce spam. Learn how your comment data is processed.