Wings – At The Speed Of Sound




No Cover available

Artist: Wings
Year: 1989
Genre: Rock
Notes: Discogs
Add. Notes:
Watch Songs on: YouTube
Cover incl.: Yes
Encoder: FLAC
Bitrate: ~800 kBit/s (44.1 kHz/16 Bit/s)
Log & Cue incl.: Yes/Yes
Size: 452,1 MB
Password: “slam” (without ” “)


All Downloads/Hosters are compatible

Download 1
KatFile.com
Turbobit.net
FileFactory.com
Rapidgator.net
Download 2
KatFile.com
Turbobit.net
FileFactory.com
Rapidgator.net

Tracklist:

1 Let 'Em In 
2 The Note You Never Wrote 
3 She's My Baby 
4 Beware My Love 
5 Wino Junko 
6 Silly Love Songs 
7 Cook Of The House 
8 Time To Hide 
9 Must Do Something About It 
10 San Ferry Anne 
11 Warm And Beautiful 
12 Walking In The Park With Eloise 
13 Bridge Over The River Suite 
14 Sally G

EAC-Log, CUE-Sheed & NFO:

Click to open spoiler
Exact Audio Copy V1.0 beta 1 from 15. November 2010

EAC extraction logfile from 19. January 2011, 14:11

Wings / At the Speed of Sound (CDP 7 48199 2)

Used drive : TEAC DV-W516GDM Adapter: 0 ID: 1

Read mode : Secure
Utilize accurate stream : Yes
Defeat audio cache : Yes
Make use of C2 pointers : No

Read offset correction : 6
Overread into Lead-In and Lead-Out : No
Fill up missing offset samples with silence : Yes
Delete leading and trailing silent blocks : No
Null samples used in CRC calculations : Yes
Used interface : Native Win32 interface for Win NT & 2000

Used output format : User Defined Encoder
Selected bitrate : 896 kBit/s
Quality : High
Add ID3 tag : No
Command line compressor : C:\Program Files\Exact Audio Copy 1.0\Flac\flac.exe
Additional command line options : -8 -V %s

TOC of the extracted CD

Track | Start | Length | Start sector | End sector
———————————————————
1 | 0:00.02 | 5:11.63 | 2 | 23389
2 | 5:11.65 | 4:23.62 | 23390 | 43176
3 | 9:35.52 | 3:06.63 | 43177 | 57189
4 | 12:42.40 | 6:29.50 | 57190 | 86414
5 | 19:12.15 | 5:21.10 | 86415 | 110499
6 | 24:33.25 | 5:53.35 | 110500 | 137009
7 | 30:26.60 | 2:38.37 | 137010 | 148896
8 | 33:05.22 | 4:34.65 | 148897 | 169511
9 | 37:40.12 | 3:41.08 | 169512 | 186094
10 | 41:21.20 | 2:08.40 | 186095 | 195734
11 | 43:29.60 | 3:16.70 | 195735 | 210504
12 | 46:46.55 | 3:11.67 | 210505 | 224896
13 | 49:58.47 | 3:11.38 | 224897 | 239259
14 | 53:10.10 | 3:40.10 | 239260 | 255769

Range status and errors

Selected range

Filename C:\Olaf der Weisse\Wings . 1976 . At the Speed of Sound (CDP 7 48199 2)\Wings – At the Speed of Sound (CDP 7 48199 2).wav

Peak level 97.7 %
Extraction speed 0.1 X
Range quality 100.0 %
Test CRC 86FDF7E7
Copy CRC 86FDF7E7
Copy OK

No errors occurred

AccurateRip summary

Track 1 accurately ripped (confidence 9) [73F12EFA]
Track 2 accurately ripped (confidence 9) [30CEE7FA]
Track 3 accurately ripped (confidence 10) [D09C537E]
Track 4 accurately ripped (confidence 10) [1F1D1F43]
Track 5 accurately ripped (confidence 8) [7B287820]
Track 6 accurately ripped (confidence 8) [7E175310]
Track 7 accurately ripped (confidence 9) [0D9E0356]
Track 8 accurately ripped (confidence 9) [E6CB1695]
Track 9 accurately ripped (confidence 9) [985189E0]
Track 10 accurately ripped (confidence 9) [9EF906D1]
Track 11 accurately ripped (confidence 9) [F63C4FB5]
Track 12 accurately ripped (confidence 9) [696DD591]
Track 13 accurately ripped (confidence 9) [9374EB1C]
Track 14 accurately ripped (confidence 9) [FEB6A331]

All tracks accurately ripped

End of status report

==== Log checksum 43C54FA15248DE5E7E7507E13EBD9DD51605DC49DBD4F2AA0E302382C8D4E57C ====

REM GENRE Rock
REM DATE 1976
REM DISCID C00D520E
REM COMMENT “ExactAudioCopy v1.0b1”
PERFORMER “Wings”
TITLE “At the Speed of Sound (CDP 7 48199 2)”
FILE “Wings – At the Speed of Sound (CDP 7 48199 2).flac” WAVE
TRACK 01 AUDIO
TITLE “Let ‘Em In”
PERFORMER “Wings”
INDEX 00 00:00:00
INDEX 01 00:00:02
TRACK 02 AUDIO
TITLE “The Note You Never Wrote”
PERFORMER “Wings”
INDEX 00 05:10:57
INDEX 01 05:11:65
TRACK 03 AUDIO
TITLE “She’s My Baby”
PERFORMER “Wings”
INDEX 00 09:33:72
INDEX 01 09:35:52
TRACK 04 AUDIO
TITLE “Beware My Love”
PERFORMER “Wings”
INDEX 01 12:42:40
TRACK 05 AUDIO
TITLE “Wino Junko”
PERFORMER “Wings”
INDEX 00 19:10:72
INDEX 01 19:12:15
TRACK 06 AUDIO
TITLE “Silly Love Songs”
PERFORMER “Wings”
INDEX 00 24:31:20
INDEX 01 24:33:25
TRACK 07 AUDIO
TITLE “Cook of the House”
PERFORMER “Wings”
INDEX 01 30:26:60
TRACK 08 AUDIO
TITLE “Time to Hide”
PERFORMER “Wings”
INDEX 01 33:05:22
TRACK 09 AUDIO
TITLE “Must Do Something About It”
PERFORMER “Wings”
INDEX 01 37:40:12
TRACK 10 AUDIO
TITLE “San Ferry Anne”
PERFORMER “Wings”
INDEX 00 41:19:52
INDEX 01 41:21:20
TRACK 11 AUDIO
TITLE “Warm and Beautiful”
PERFORMER “Wings”
INDEX 00 43:28:07
INDEX 01 43:29:60
TRACK 12 AUDIO
TITLE “Walking in the Park with Eloise”
PERFORMER “Wings”
INDEX 00 46:43:27
INDEX 01 46:46:55
TRACK 13 AUDIO
TITLE “Bridge over the River Suite”
PERFORMER “Wings”
INDEX 00 49:54:67
INDEX 01 49:58:47
TRACK 14 AUDIO
TITLE “Sally G.”
PERFORMER “Wings”
INDEX 00 53:07:15
INDEX 01 53:10:10


Leave a Reply

Your email address will not be published. Required fields are marked *

Enter the text from the image below
 

This site uses Akismet to reduce spam. Learn how your comment data is processed.