Westernhagen – Williamsburg




Artist: Westernhagen
Year: 2009
Genre: Rock
Notes: Discogs
Add. Notes:
Encoder: FLAC
Bitrate: ~900 kBit/s (VBR)
Size: 327,94 MB
Password: “slam” (without ” “)


Crypted via FileCrypt.cc:

.

Crypted via Relink.to:

Tracklist:

1 - Hey, Hey - 3:39
2 - Schinderhannes - 5:27
3 - Mit Beiden Füssen Auf Dem Boden - 3:26
4 - Komm Schon - 2:59
5 - Liebeswahn - 3:12
6 - Typisch Du - 4:08
7 - Zu Lang Allein - 4:32
8 - Wir Haben Die Schnauze Voll - 5:40
9 - Heute Nacht - 3:44
10 - Liebe Stinkt - 3:44
11 - Ein Mann Zwischen Den Zeilen - 4:28
12 - Aus Dir Mutter - 4:25

EAC-Log, CUE-Sheed & NFO:

Click to open spoiler
Exact Audio Copy V1.0 beta 3 from 29. August 2011

EAC extraction logfile from 30. September 2014, 16:05

Marius Mueller-Westernhagen / Williamsburg

Used drive : MATSHITABD-MLT UJ260 Adapter: 0 ID: 1

Read mode : Secure
Utilize accurate stream : Yes
Defeat audio cache : Yes
Make use of C2 pointers : No

Read offset correction : 103
Overread into Lead-In and Lead-Out : No
Fill up missing offset samples with silence : Yes
Delete leading and trailing silent blocks : No
Null samples used in CRC calculations : Yes
Used interface : Native Win32 interface for Win NT & 2000
Gap handling : Appended to previous track

Used output format : User Defined Encoder
Selected bitrate : 1024 kBit/s
Quality : High
Add ID3 tag : No
Command line compressor : C:\Program Files (x86)\Exact Audio Copy\Flac\flac.exe
Additional command line options : -V -8 -T “Genre=%genre%” -T “Artist=%artist%” -T “Title=%title%” -T “Album=%albumtitle%” -T “Date=%year%” -T “Tracknumber=%tracknr%” -T “Comment=%comment%” %source%

TOC of the extracted CD

Track | Start | Length | Start sector | End sector
———————————————————
1 | 0:00.00 | 3:39.59 | 0 | 16483
2 | 3:39.59 | 5:27.20 | 16484 | 41028
3 | 9:07.04 | 3:26.43 | 41029 | 56521
4 | 12:33.47 | 2:59.28 | 56522 | 69974
5 | 15:33.00 | 3:13.10 | 69975 | 84459
6 | 18:46.10 | 4:08.23 | 84460 | 103082
7 | 22:54.33 | 4:32.40 | 103083 | 123522
8 | 27:26.73 | 5:40.52 | 123523 | 149074
9 | 33:07.50 | 3:44.04 | 149075 | 165878
10 | 36:51.54 | 3:44.01 | 165879 | 182679
11 | 40:35.55 | 4:28.47 | 182680 | 202826
12 | 45:04.27 | 4:25.48 | 202827 | 222749

Track 1

Filename E:\Razda4i\Marius Mueller-Westernhagen flac\Marius Mueller-Westernhagen flac\Albums\Marius Mueller-Westernhagen – Williamsburg [FLAC] {2009}\01 Hey, hey.wav

Pre-gap length 0:00:02.00

Peak level 98.8 %
Extraction speed 1.8 X
Track quality 99.9 %
Test CRC 3AED19AC
Copy CRC 3AED19AC
Accurately ripped (confidence 44) [99C5718D] (AR v2)
Copy OK

Track 2

Filename E:\Razda4i\Marius Mueller-Westernhagen flac\Marius Mueller-Westernhagen flac\Albums\Marius Mueller-Westernhagen – Williamsburg [FLAC] {2009}\02 Schinderhannes.wav

Peak level 98.8 %
Extraction speed 2.9 X
Track quality 100.0 %
Test CRC 6BE8A006
Copy CRC 6BE8A006
Accurately ripped (confidence 43) [01F1EEA1] (AR v2)
Copy OK

Track 3

Filename E:\Razda4i\Marius Mueller-Westernhagen flac\Marius Mueller-Westernhagen flac\Albums\Marius Mueller-Westernhagen – Williamsburg [FLAC] {2009}\03 Mit beiden Fuessen auf dem Boden.wav

Peak level 99.1 %
Extraction speed 2.9 X
Track quality 100.0 %
Test CRC 5E55BF27
Copy CRC 5E55BF27
Accurately ripped (confidence 44) [057944D2] (AR v2)
Copy OK

Track 4

Filename E:\Razda4i\Marius Mueller-Westernhagen flac\Marius Mueller-Westernhagen flac\Albums\Marius Mueller-Westernhagen – Williamsburg [FLAC] {2009}\04 Komm schon.wav

Peak level 98.8 %
Extraction speed 3.0 X
Track quality 100.0 %
Test CRC B7B7ADC7
Copy CRC B7B7ADC7
Accurately ripped (confidence 44) [86351951] (AR v2)
Copy OK

Track 5

Filename E:\Razda4i\Marius Mueller-Westernhagen flac\Marius Mueller-Westernhagen flac\Albums\Marius Mueller-Westernhagen – Williamsburg [FLAC] {2009}\05 Liebeswahn.wav

Peak level 98.8 %
Extraction speed 3.2 X
Track quality 100.0 %
Test CRC 3D955FEC
Copy CRC 3D955FEC
Accurately ripped (confidence 44) [BA01EB77] (AR v2)
Copy OK

Track 6

Filename E:\Razda4i\Marius Mueller-Westernhagen flac\Marius Mueller-Westernhagen flac\Albums\Marius Mueller-Westernhagen – Williamsburg [FLAC] {2009}\06 Typisch du.wav

Pre-gap length 0:00:00.71

Peak level 98.8 %
Extraction speed 2.6 X
Track quality 99.9 %
Test CRC 105B972F
Copy CRC 105B972F
Accurately ripped (confidence 43) [B3E28005] (AR v2)
Copy OK

Track 7

Filename E:\Razda4i\Marius Mueller-Westernhagen flac\Marius Mueller-Westernhagen flac\Albums\Marius Mueller-Westernhagen – Williamsburg [FLAC] {2009}\07 Zu lang allein.wav

Peak level 100.0 %
Extraction speed 3.7 X
Track quality 100.0 %
Test CRC 2CA7227A
Copy CRC 2CA7227A
Accurately ripped (confidence 43) [4F1588F4] (AR v2)
Copy OK

Track 8

Filename E:\Razda4i\Marius Mueller-Westernhagen flac\Marius Mueller-Westernhagen flac\Albums\Marius Mueller-Westernhagen – Williamsburg [FLAC] {2009}\08 Wir haben die Schnauze voll.wav

Peak level 100.0 %
Extraction speed 4.0 X
Track quality 100.0 %
Test CRC C1E96D92
Copy CRC C1E96D92
Accurately ripped (confidence 43) [7DDAEA62] (AR v2)
Copy OK

Track 9

Filename E:\Razda4i\Marius Mueller-Westernhagen flac\Marius Mueller-Westernhagen flac\Albums\Marius Mueller-Westernhagen – Williamsburg [FLAC] {2009}\09 Heute Nacht (feat. Della Miles).wav

Peak level 83.1 %
Extraction speed 3.9 X
Track quality 100.0 %
Test CRC 483449A9
Copy CRC 483449A9
Accurately ripped (confidence 43) [5DCFE54E] (AR v2)
Copy OK

Track 10

Filename E:\Razda4i\Marius Mueller-Westernhagen flac\Marius Mueller-Westernhagen flac\Albums\Marius Mueller-Westernhagen – Williamsburg [FLAC] {2009}\10 Liebe stinkt.wav

Peak level 98.8 %
Extraction speed 4.1 X
Track quality 100.0 %
Test CRC 69BB397E
Copy CRC 69BB397E
Accurately ripped (confidence 43) [77DCB523] (AR v2)
Copy OK

Track 11

Filename E:\Razda4i\Marius Mueller-Westernhagen flac\Marius Mueller-Westernhagen flac\Albums\Marius Mueller-Westernhagen – Williamsburg [FLAC] {2009}\11 Ein Mann zwischen den Zeilen.wav

Peak level 98.8 %
Extraction speed 4.3 X
Track quality 100.0 %
Test CRC 7BCBCAE2
Copy CRC 7BCBCAE2
Accurately ripped (confidence 44) [3EC626A1] (AR v2)
Copy OK

Track 12

Filename E:\Razda4i\Marius Mueller-Westernhagen flac\Marius Mueller-Westernhagen flac\Albums\Marius Mueller-Westernhagen – Williamsburg [FLAC] {2009}\12 Aus dir Mutter.wav

Peak level 98.8 %
Extraction speed 0.4 X
Track quality 100.0 %
Test CRC 4E2B4F45
Copy CRC 4E2B4F45
Accurately ripped (confidence 42) [A4C5C169] (AR v2)
Copy OK

All tracks accurately ripped

No errors occurred

End of status report

==== Log checksum E48F11E26981664E455D6A93089B855178E081D3F10C1D3F03C4FE7114327A42 ====

REM GENRE Rock
REM DATE 2009
REM DISCID AD0B9A0C
REM COMMENT “ExactAudioCopy v1.0b3”
PERFORMER “Marius Mueller-Westernhagen”
TITLE “Williamsburg”
FILE “01 Hey, hey.wav” WAVE
TRACK 01 AUDIO
TITLE “Hey, hey”
PERFORMER “Marius Müller-Westernhagen”
FLAGS DCP
INDEX 01 00:00:00
FILE “02 Schinderhannes.wav” WAVE
TRACK 02 AUDIO
TITLE “Schinderhannes”
PERFORMER “Marius Müller-Westernhagen”
FLAGS DCP
INDEX 01 00:00:00
FILE “03 Mit beiden Fuessen auf dem Boden.wav” WAVE
TRACK 03 AUDIO
TITLE “Mit beiden Fuessen auf dem Boden”
PERFORMER “Marius Müller-Westernhagen”
FLAGS DCP
INDEX 01 00:00:00
FILE “04 Komm schon.wav” WAVE
TRACK 04 AUDIO
TITLE “Komm schon”
PERFORMER “Marius Müller-Westernhagen”
FLAGS DCP
INDEX 01 00:00:00
FILE “05 Liebeswahn.wav” WAVE
TRACK 05 AUDIO
TITLE “Liebeswahn”
PERFORMER “Marius Müller-Westernhagen”
FLAGS DCP
INDEX 01 00:00:00
TRACK 06 AUDIO
TITLE “Typisch du”
PERFORMER “Marius Müller-Westernhagen”
FLAGS DCP
INDEX 00 03:12:14
FILE “06 Typisch du.wav” WAVE
INDEX 01 00:00:00
FILE “07 Zu lang allein.wav” WAVE
TRACK 07 AUDIO
TITLE “Zu lang allein”
PERFORMER “Marius Müller-Westernhagen”
FLAGS DCP
INDEX 01 00:00:00
FILE “08 Wir haben die Schnauze voll.wav” WAVE
TRACK 08 AUDIO
TITLE “Wir haben die Schnauze voll”
PERFORMER “Marius Müller-Westernhagen”
FLAGS DCP
INDEX 01 00:00:00
FILE “09 Heute Nacht (feat. Della Miles).wav” WAVE
TRACK 09 AUDIO
TITLE “Heute Nacht (feat. Della Miles)”
PERFORMER “Marius Müller-Westernhagen”
FLAGS DCP
INDEX 01 00:00:00
FILE “10 Liebe stinkt.wav” WAVE
TRACK 10 AUDIO
TITLE “Liebe stinkt”
PERFORMER “Marius Müller-Westernhagen”
FLAGS DCP
INDEX 01 00:00:00
FILE “11 Ein Mann zwischen den Zeilen.wav” WAVE
TRACK 11 AUDIO
TITLE “Ein Mann zwischen den Zeilen”
PERFORMER “Marius Müller-Westernhagen”
FLAGS DCP
INDEX 01 00:00:00
FILE “12 Aus dir Mutter.wav” WAVE
TRACK 12 AUDIO
TITLE “Aus dir Mutter”
PERFORMER “Marius Müller-Westernhagen”
FLAGS DCP
INDEX 01 00:00:00

Leave a Reply

Your email address will not be published. Required fields are marked *

Enter the text from the image below
 

This site uses Akismet to reduce spam. Learn how your comment data is processed.