Westernhagen – Stinker




Artist: Westernhagen
Year: 1981/1987
Genre: Rock
Notes: Discogs
Add. Notes: Reissue
Cover incl.: Yes
Encoder: FLAC
Bitrate: ~800 kBit/s (44.1 kHz/16 Bit/s)
Log & Cue incl.: Yes
Size: 219,16 MB
Password: “slam” (without ” “)


All Downloads/Hosters are compatible

Download 1
Turbobit.net
Rapidgator.net
KatFile.com
UploadRar.com
Download 2
Turbobit.net
Rapidgator.net
KatFile.com
UploadRar.com

Tracklist:

1 - Ladykiller - 4:02
2 - Dass Du Mich Verlässt - 2:25
3 - Von Drüben - 4:40
4 - Herr D. - 2:52
5 - Sei Stark - 4:44
6 - Sex - 2:51
7 - Ich Liebe Dich - 2:52
8 - Rosi - 5:44
9 - Lulu - 3:35
10 - Ein Loch In Der Tasche - 3:48

EAC-Log, CUE-Sheed & NFO:

Click to open spoiler
Exact Audio Copy V1.0 beta 3 from 29. August 2011

EAC extraction logfile from 1. October 2014, 22:35

Marius Mueller-Westernhagen / Stinker

Used drive : MATSHITABD-MLT UJ260 Adapter: 0 ID: 1

Read mode : Secure
Utilize accurate stream : Yes
Defeat audio cache : Yes
Make use of C2 pointers : No

Read offset correction : 103
Overread into Lead-In and Lead-Out : No
Fill up missing offset samples with silence : Yes
Delete leading and trailing silent blocks : No
Null samples used in CRC calculations : Yes
Used interface : Native Win32 interface for Win NT & 2000
Gap handling : Appended to previous track

Used output format : User Defined Encoder
Selected bitrate : 1024 kBit/s
Quality : High
Add ID3 tag : No
Command line compressor : C:\Program Files (x86)\Exact Audio Copy\Flac\flac.exe
Additional command line options : -V -8 -T “Genre=%genre%” -T “Artist=%artist%” -T “Title=%title%” -T “Album=%albumtitle%” -T “Date=%year%” -T “Tracknumber=%tracknr%” -T “Comment=%comment%” %source%

TOC of the extracted CD

Track | Start | Length | Start sector | End sector
———————————————————
1 | 0:00.00 | 4:06.70 | 0 | 18519
2 | 4:06.70 | 2:28.57 | 18520 | 29676
3 | 6:35.52 | 4:48.63 | 29677 | 51339
4 | 11:24.40 | 2:55.27 | 51340 | 64491
5 | 14:19.67 | 4:50.40 | 64492 | 86281
6 | 19:10.32 | 2:54.00 | 86282 | 99331
7 | 22:04.32 | 2:57.15 | 99332 | 112621
8 | 25:01.47 | 5:46.18 | 112622 | 138589
9 | 30:47.65 | 3:40.42 | 138590 | 155131
10 | 34:28.32 | 3:50.63 | 155132 | 172444

Track 1

Filename E:\Razda4i\Marius Mueller-Westernhagen flac\Marius Mueller-Westernhagen flac\Albums\Marius Mueller-Westernhagen – Stinker [FLAC] {(1987) 1981}\01 Ladykiller.wav

Pre-gap length 0:00:02.00

Peak level 85.1 %
Extraction speed 2.5 X
Track quality 100.0 %
Test CRC 41AFBF03
Copy CRC 41AFBF03
Accurately ripped (confidence 29) [0599E757] (AR v2)
Copy OK

Track 2

Filename E:\Razda4i\Marius Mueller-Westernhagen flac\Marius Mueller-Westernhagen flac\Albums\Marius Mueller-Westernhagen – Stinker [FLAC] {(1987) 1981}\02 Dass du mich verlaesst.wav

Pre-gap length 0:00:04.13

Peak level 82.3 %
Extraction speed 2.5 X
Track quality 100.0 %
Test CRC E60B2988
Copy CRC E60B2988
Accurately ripped (confidence 30) [CA7F9795] (AR v2)
Copy OK

Track 3

Filename E:\Razda4i\Marius Mueller-Westernhagen flac\Marius Mueller-Westernhagen flac\Albums\Marius Mueller-Westernhagen – Stinker [FLAC] {(1987) 1981}\03 Von drueben.wav

Pre-gap length 0:00:03.42

Peak level 78.5 %
Extraction speed 2.3 X
Track quality 99.9 %
Test CRC CF4F4CC2
Copy CRC CF4F4CC2
Accurately ripped (confidence 31) [783F7595] (AR v2)
Copy OK

Track 4

Filename E:\Razda4i\Marius Mueller-Westernhagen flac\Marius Mueller-Westernhagen flac\Albums\Marius Mueller-Westernhagen – Stinker [FLAC] {(1987) 1981}\04 Herr D..wav

Pre-gap length 0:00:07.05

Peak level 78.2 %
Extraction speed 2.9 X
Track quality 100.0 %
Test CRC ACFFFAE2
Copy CRC ACFFFAE2
Accurately ripped (confidence 29) [18F0BD7F] (AR v2)
Copy OK

Track 5

Filename E:\Razda4i\Marius Mueller-Westernhagen flac\Marius Mueller-Westernhagen flac\Albums\Marius Mueller-Westernhagen – Stinker [FLAC] {(1987) 1981}\05 Sei stark.wav

Pre-gap length 0:00:04.37

Peak level 84.2 %
Extraction speed 3.3 X
Track quality 100.0 %
Test CRC A973D838
Copy CRC A973D838
Accurately ripped (confidence 29) [A61D55FA] (AR v2)
Copy OK

Track 6

Filename E:\Razda4i\Marius Mueller-Westernhagen flac\Marius Mueller-Westernhagen flac\Albums\Marius Mueller-Westernhagen – Stinker [FLAC] {(1987) 1981}\06 Sex.wav

Pre-gap length 0:00:04.12

Peak level 85.1 %
Extraction speed 3.3 X
Track quality 100.0 %
Test CRC DAC90502
Copy CRC DAC90502
Accurately ripped (confidence 29) [444FB2D2] (AR v2)
Copy OK

Track 7

Filename E:\Razda4i\Marius Mueller-Westernhagen flac\Marius Mueller-Westernhagen flac\Albums\Marius Mueller-Westernhagen – Stinker [FLAC] {(1987) 1981}\07 Ich liebe dich.wav

Pre-gap length 0:00:03.52

Peak level 85.1 %
Extraction speed 3.4 X
Track quality 100.0 %
Test CRC F148E9E6
Copy CRC F148E9E6
Accurately ripped (confidence 30) [1457CC74] (AR v2)
Copy OK

Track 8

Filename E:\Razda4i\Marius Mueller-Westernhagen flac\Marius Mueller-Westernhagen flac\Albums\Marius Mueller-Westernhagen – Stinker [FLAC] {(1987) 1981}\08 Rosi.wav

Pre-gap length 0:00:05.17

Peak level 85.1 %
Extraction speed 3.2 X
Track quality 99.9 %
Test CRC 06E97A22
Copy CRC 06E97A22
Accurately ripped (confidence 30) [28562DC7] (AR v2)
Copy OK

Track 9

Filename E:\Razda4i\Marius Mueller-Westernhagen flac\Marius Mueller-Westernhagen flac\Albums\Marius Mueller-Westernhagen – Stinker [FLAC] {(1987) 1981}\09 Lulu.wav

Pre-gap length 0:00:04.40

Peak level 75.8 %
Extraction speed 3.9 X
Track quality 100.0 %
Test CRC D2BE9850
Copy CRC D2BE9850
Accurately ripped (confidence 30) [457E29C1] (AR v2)
Copy OK

Track 10

Filename E:\Razda4i\Marius Mueller-Westernhagen flac\Marius Mueller-Westernhagen flac\Albums\Marius Mueller-Westernhagen – Stinker [FLAC] {(1987) 1981}\10 Ein Loch in der Tasche.wav

Pre-gap length 0:00:05.30

Peak level 72.9 %
Extraction speed 4.0 X
Track quality 100.0 %
Test CRC 22EDA35D
Copy CRC 22EDA35D
Accurately ripped (confidence 30) [5E3EA3C7] (AR v2)
Copy OK

All tracks accurately ripped

No errors occurred

End of status report

==== Log checksum 624D01840E1AEB4E88133851F7F1873CE93B0CFAF0832A7F0F774AB85AB6111A ====

REM GENRE Deutschrock
REM DATE 1981
REM DISCID 8308FB0A
REM COMMENT “ExactAudioCopy v1.0b3”
PERFORMER “Marius Mueller-Westernhagen”
TITLE “Stinker”
FILE “01 Ladykiller.wav” WAVE
TRACK 01 AUDIO
TITLE “Ladykiller”
PERFORMER “Marius Müller-Westernhagen”
INDEX 01 00:00:00
TRACK 02 AUDIO
TITLE “Dass du mich verlaesst”
PERFORMER “Marius Müller-Westernhagen”
INDEX 00 04:02:57
FILE “02 Dass du mich verlaesst.wav” WAVE
INDEX 01 00:00:00
TRACK 03 AUDIO
TITLE “Von drueben”
PERFORMER “Marius Müller-Westernhagen”
INDEX 00 02:25:15
FILE “03 Von drueben.wav” WAVE
INDEX 01 00:00:00
TRACK 04 AUDIO
TITLE “Herr D.”
PERFORMER “Marius Müller-Westernhagen”
INDEX 00 04:41:58
FILE “04 Herr D..wav” WAVE
INDEX 01 00:00:00
TRACK 05 AUDIO
TITLE “Sei stark”
PERFORMER “Marius Müller-Westernhagen”
INDEX 00 02:50:65
FILE “05 Sei stark.wav” WAVE
INDEX 01 00:00:00
TRACK 06 AUDIO
TITLE “Sex”
PERFORMER “Marius Müller-Westernhagen”
INDEX 00 04:46:28
FILE “06 Sex.wav” WAVE
INDEX 01 00:00:00
TRACK 07 AUDIO
TITLE “Ich liebe dich”
PERFORMER “Marius Müller-Westernhagen”
INDEX 00 02:50:23
FILE “07 Ich liebe dich.wav” WAVE
INDEX 01 00:00:00
TRACK 08 AUDIO
TITLE “Rosi”
PERFORMER “Marius Müller-Westernhagen”
INDEX 00 02:51:73
FILE “08 Rosi.wav” WAVE
INDEX 01 00:00:00
TRACK 09 AUDIO
TITLE “Lulu”
PERFORMER “Marius Müller-Westernhagen”
INDEX 00 05:41:53
FILE “09 Lulu.wav” WAVE
INDEX 01 00:00:00
TRACK 10 AUDIO
TITLE “Ein Loch in der Tasche”
PERFORMER “Marius Müller-Westernhagen”
INDEX 00 03:35:12
FILE “10 Ein Loch in der Tasche.wav” WAVE
INDEX 01 00:00:00


Leave a Reply

Your email address will not be published. Required fields are marked *

Enter the text from the image below
 

This site uses Akismet to reduce spam. Learn how your comment data is processed.