Westernhagen – So Weit…




Artist: Westernhagen
Year: 2000
Genre: Rock
Notes: Discogs
Add. Notes:
Cover incl.: Yes
Encoder: FLAC
Bitrate: ~900 kBit/s (44.1 kHz/16 Bit/s)
Log & Cue incl.: Yes
Size: 496,27 MB
Password: “slam” (without ” “)


All Downloads/Hosters are compatible

Download 1
Turbobit.net
Rapidgator.net
KatFile.com
UploadRar.com
Download 2
Turbobit.net
Rapidgator.net
KatFile.com
UploadRar.com
Download 3
Turbobit.net
Rapidgator.net
KatFile.com
UploadRar.com

Tracklist:

1 - Du Bist Nicht Allein - 4:40
2 - Rosanna - 5:05
3 - Sexy - 5:30
4 - Mit 18 - 5:09
5 - Lass Uns Leben - 4:20
6 - Willenlos - 3:25
7 - Es Geht Mir Gut - 4:47
8 - Nimm Mich Mit 2000 - 6:25
9 - Freiheit - 2:34
10 - Fertig - 3:16
11 - Mit Pfefferminz Bin Ich Dein Prinz - 2:45
12 - Wieder Hier - 6:29
13 - Schweigen Ist Feige - 3:29
14 - Rosi (Männer Sind So Schwach) - 4:36
15 - Weil Ich Dich Liebe - 4:45
16 - Steh Auf - 4:28
17 - Geiler Is' Schon - 2:18
18 - Johnny W. - 3:25

EAC-Log, CUE-Sheed & NFO:

Click to open spoiler
Exact Audio Copy V1.0 beta 1 from 15. November 2010

EAC extraction logfile from 13. January 2011, 1:55

Marius Müller Westernhagen / So Weit …

Used drive : Optiarc BD ROM BC-5530H Adapter: 0 ID: 1

Read mode : Secure
Utilize accurate stream : Yes
Defeat audio cache : Yes
Make use of C2 pointers : No

Read offset correction : 48
Overread into Lead-In and Lead-Out : No
Fill up missing offset samples with silence : Yes
Delete leading and trailing silent blocks : No
Null samples used in CRC calculations : Yes
Used interface : Native Win32 interface for Win NT & 2000
Gap handling : Appended to previous track

Used output format : User Defined Encoder
Selected bitrate : 320 kBit/s
Quality : High
Add ID3 tag : No
Command line compressor : C:\Program Files (x86)\Exact Audio Copy\Flac\flac.exe
Additional command line options : -V -8 -T “artist=%a” -T “title=%t” -T “album=%g” -T “date=%y” -T “tracknumber=%n” -T “genre=%m” %s

TOC of the extracted CD

Track | Start | Length | Start sector | End sector
———————————————————
1 | 0:00.00 | 4:40.15 | 0 | 21014
2 | 4:40.15 | 5:05.57 | 21015 | 43946
3 | 9:45.72 | 5:32.08 | 43947 | 68854
4 | 15:18.05 | 5:12.02 | 68855 | 92256
5 | 20:30.07 | 4:20.28 | 92257 | 111784
6 | 24:50.35 | 3:23.10 | 111785 | 127019
7 | 28:13.45 | 4:48.22 | 127020 | 148641
8 | 33:01.67 | 6:25.70 | 148642 | 177586
9 | 39:27.62 | 2:39.00 | 177587 | 189511
10 | 42:06.62 | 3:16.13 | 189512 | 204224
11 | 45:23.00 | 2:48.07 | 204225 | 216831
12 | 48:11.07 | 6:27.63 | 216832 | 245919
13 | 54:38.70 | 3:30.67 | 245920 | 261736
14 | 58:09.62 | 4:37.30 | 261737 | 282541
15 | 62:47.17 | 4:47.28 | 282542 | 304094
16 | 67:34.45 | 4:30.40 | 304095 | 324384
17 | 72:05.10 | 2:22.00 | 324385 | 335034
18 | 74:27.10 | 3:28.47 | 335035 | 350681

Track 1

Filename C:\EAC Rips\Marius Müller Westernhagen – 2000 – So Weit … [FLAC]\01 – Du bist nicht allein.wav

Pre-gap length 0:00:02.00

Peak level 99.8 %
Extraction speed 10.2 X
Track quality 100.0 %
Test CRC 69591576
Copy CRC 69591576
Accurately ripped (confidence 47) [D403EF0A]
Copy OK

Track 2

Filename C:\EAC Rips\Marius Müller Westernhagen – 2000 – So Weit … [FLAC]\02 – Rosanna.wav

Pre-gap length 0:00:00.06

Peak level 100.0 %
Extraction speed 11.4 X
Track quality 100.0 %
Test CRC 0406F393
Copy CRC 0406F393
Accurately ripped (confidence 47) [CC8D16C4]
Copy OK

Track 3

Filename C:\EAC Rips\Marius Müller Westernhagen – 2000 – So Weit … [FLAC]\03 – Sexy.wav

Peak level 100.0 %
Extraction speed 12.5 X
Track quality 100.0 %
Test CRC A4B1A6CD
Copy CRC A4B1A6CD
Accurately ripped (confidence 49) [D0A498F2]
Copy OK

Track 4

Filename C:\EAC Rips\Marius Müller Westernhagen – 2000 – So Weit … [FLAC]\04 – Mit 18.wav

Pre-gap length 0:00:01.50

Peak level 100.0 %
Extraction speed 13.3 X
Track quality 100.0 %
Test CRC 66BB2C21
Copy CRC 66BB2C21
Accurately ripped (confidence 49) [DBC655F8]
Copy OK

Track 5

Filename C:\EAC Rips\Marius Müller Westernhagen – 2000 – So Weit … [FLAC]\05 – Lass uns leben.wav

Pre-gap length 0:00:02.13

Peak level 95.9 %
Extraction speed 13.9 X
Track quality 100.0 %
Test CRC 3D3A6CA2
Copy CRC 3D3A6CA2
Accurately ripped (confidence 49) [D12C7F3E]
Copy OK

Track 6

Filename C:\EAC Rips\Marius Müller Westernhagen – 2000 – So Weit … [FLAC]\06 – Willenlos.wav

Pre-gap length 0:00:00.86

Peak level 96.8 %
Extraction speed 14.1 X
Track quality 100.0 %
Test CRC 1E79225E
Copy CRC 1E79225E
Accurately ripped (confidence 49) [2BDB51D4]
Copy OK

Track 7

Filename C:\EAC Rips\Marius Müller Westernhagen – 2000 – So Weit … [FLAC]\07 – Es geht mir gut.wav

Pre-gap length 0:00:00.90

Peak level 100.0 %
Extraction speed 15.1 X
Track quality 100.0 %
Test CRC 7D15E37B
Copy CRC 7D15E37B
Accurately ripped (confidence 50) [F692D372]
Copy OK

Track 8

Filename C:\EAC Rips\Marius Müller Westernhagen – 2000 – So Weit … [FLAC]\08 – Nimm mich mit 2000.wav

Pre-gap length 0:00:00.73

Peak level 94.7 %
Extraction speed 16.1 X
Track quality 100.0 %
Test CRC 906E2CEA
Copy CRC 906E2CEA
Accurately ripped (confidence 50) [E5F99EE9]
Copy OK

Track 9

Filename C:\EAC Rips\Marius Müller Westernhagen – 2000 – So Weit … [FLAC]\09 – Freiheit.wav

Pre-gap length 0:00:00.42

Peak level 90.7 %
Extraction speed 15.6 X
Track quality 100.0 %
Test CRC 32DCD9EF
Copy CRC 32DCD9EF
Accurately ripped (confidence 50) [E65AC71F]
Copy OK

Track 10

Filename C:\EAC Rips\Marius Müller Westernhagen – 2000 – So Weit … [FLAC]\10 – Fertig.wav

Pre-gap length 0:00:00.13

Peak level 94.4 %
Extraction speed 16.2 X
Track quality 100.0 %
Test CRC CB084955
Copy CRC CB084955
Accurately ripped (confidence 49) [E2135EFA]
Copy OK

Track 11

Filename C:\EAC Rips\Marius Müller Westernhagen – 2000 – So Weit … [FLAC]\11 – Mit Pfefferminz bin ich Dein Prinz.wav

Pre-gap length 0:00:00.73

Peak level 100.0 %
Extraction speed 16.2 X
Track quality 100.0 %
Test CRC 0924B268
Copy CRC 0924B268
Accurately ripped (confidence 49) [D5DA35D0]
Copy OK

Track 12

Filename C:\EAC Rips\Marius Müller Westernhagen – 2000 – So Weit … [FLAC]\12 – Wieder hier.wav

Pre-gap length 0:00:01.02

Peak level 80.0 %
Extraction speed 16.8 X
Track quality 99.9 %
Test CRC 6FE262B4
Copy CRC 6FE262B4
Accurately ripped (confidence 49) [83342D88]
Copy OK

Track 13

Filename C:\EAC Rips\Marius Müller Westernhagen – 2000 – So Weit … [FLAC]\13 – Schweigen ist feige.wav

Pre-gap length 0:00:00.40

Peak level 100.0 %
Extraction speed 17.4 X
Track quality 100.0 %
Test CRC 99525822
Copy CRC 99525822
Accurately ripped (confidence 48) [F04FF040]
Copy OK

Track 14

Filename C:\EAC Rips\Marius Müller Westernhagen – 2000 – So Weit … [FLAC]\14 – Rosi (Männer sind so schwach).wav

Pre-gap length 0:00:01.02

Peak level 100.0 %
Extraction speed 18.3 X
Track quality 100.0 %
Test CRC 05305929
Copy CRC 05305929
Accurately ripped (confidence 47) [E890EC68]
Copy OK

Track 15

Filename C:\EAC Rips\Marius Müller Westernhagen – 2000 – So Weit … [FLAC]\15 – Weil ich Dich liebe.wav

Pre-gap length 0:00:00.62

Peak level 100.0 %
Extraction speed 18.8 X
Track quality 100.0 %
Test CRC 7F56ACA0
Copy CRC 7F56ACA0
Accurately ripped (confidence 46) [D2FC1A59]
Copy OK

Track 16

Filename C:\EAC Rips\Marius Müller Westernhagen – 2000 – So Weit … [FLAC]\16 – Steh’ auf.wav

Pre-gap length 0:00:01.60

Peak level 99.8 %
Extraction speed 19.1 X
Track quality 100.0 %
Test CRC D6E4A777
Copy CRC D6E4A777
Accurately ripped (confidence 48) [4CF776E3]
Copy OK

Track 17

Filename C:\EAC Rips\Marius Müller Westernhagen – 2000 – So Weit … [FLAC]\17 – Geiler is’ schon.wav

Pre-gap length 0:00:01.60

Peak level 89.8 %
Extraction speed 18.1 X
Track quality 100.0 %
Test CRC 410D7F23
Copy CRC 410D7F23
Accurately ripped (confidence 48) [037262AB]
Copy OK

Track 18

Filename C:\EAC Rips\Marius Müller Westernhagen – 2000 – So Weit … [FLAC]\18 – Johnny W..wav

Pre-gap length 0:00:02.40

Peak level 89.8 %
Extraction speed 19.4 X
Track quality 100.0 %
Test CRC 22B3480E
Copy CRC 22B3480E
Accurately ripped (confidence 47) [C7FCA53B]
Copy OK

All tracks accurately ripped

No errors occurred

End of status report

==== Log checksum 9F82E579852B7A4C4E50BF39A62E05AD292F6DA1C71B43B87EED25CA58D56EBF ====

REM GENRE Deutsch
REM DATE 2000
REM DISCID 28124312
REM COMMENT “ExactAudioCopy v1.0b1”
FILE “01 – Du bist nicht allein.wav” WAVE
TRACK 01 AUDIO
INDEX 01 00:00:00
TRACK 02 AUDIO
INDEX 00 04:40:10
FILE “02 – Rosanna.wav” WAVE
INDEX 01 00:00:00
FILE “03 – Sexy.wav” WAVE
TRACK 03 AUDIO
INDEX 01 00:00:00
TRACK 04 AUDIO
INDEX 00 05:30:45
FILE “04 – Mit 18.wav” WAVE
INDEX 01 00:00:00
TRACK 05 AUDIO
INDEX 00 05:09:67
FILE “05 – Lass uns leben.wav” WAVE
INDEX 01 00:00:00
TRACK 06 AUDIO
INDEX 00 04:19:38
FILE “06 – Willenlos.wav” WAVE
INDEX 01 00:00:00
TRACK 07 AUDIO
INDEX 00 03:22:17
FILE “07 – Es geht mir gut.wav” WAVE
INDEX 01 00:00:00
TRACK 08 AUDIO
INDEX 00 04:47:42
FILE “08 – Nimm mich mit 2000.wav” WAVE
INDEX 01 00:00:00
TRACK 09 AUDIO
INDEX 00 06:25:38
FILE “09 – Freiheit.wav” WAVE
INDEX 01 00:00:00
TRACK 10 AUDIO
INDEX 00 02:38:65
FILE “10 – Fertig.wav” WAVE
INDEX 01 00:00:00
TRACK 11 AUDIO
INDEX 00 03:15:33
FILE “11 – Mit Pfefferminz bin ich Dein Prinz.wav” WAVE
INDEX 01 00:00:00
TRACK 12 AUDIO
INDEX 00 02:47:05
FILE “12 – Wieder hier.wav” WAVE
INDEX 01 00:00:00
TRACK 13 AUDIO
INDEX 00 06:27:33
FILE “13 – Schweigen ist feige.wav” WAVE
INDEX 01 00:00:00
TRACK 14 AUDIO
INDEX 00 03:29:65
FILE “14 – Rosi (Männer sind so schwach).wav” WAVE
INDEX 01 00:00:00
TRACK 15 AUDIO
INDEX 00 04:36:58
FILE “15 – Weil ich Dich liebe.wav” WAVE
INDEX 01 00:00:00
TRACK 16 AUDIO
INDEX 00 04:45:58
FILE “16 – Steh’ auf.wav” WAVE
INDEX 01 00:00:00
TRACK 17 AUDIO
INDEX 00 04:28:70
FILE “17 – Geiler is’ schon.wav” WAVE
INDEX 01 00:00:00
TRACK 18 AUDIO
INDEX 00 02:19:45
FILE “18 – Johnny W..wav” WAVE
INDEX 01 00:00:00


Leave a Reply

Your email address will not be published. Required fields are marked *

Enter the text from the image below
 

This site uses Akismet to reduce spam. Learn how your comment data is processed.