Westernhagen – Sekt oder Selters (Reissue)




Artist: Westernhagen
Year: 1980/1987
Genre: Rock
Notes: Discogs
Add. Notes: Reissue
Cover incl.: Yes
Encoder: FLAC
Bitrate: ~800 kBit/s (44.1 kHz/16 Bit/s)
Log & Cue incl.: Yes
Size: 184,28 MB
Password: “slam” (without ” “)


All Downloads/Hosters are compatible

Download 1
Turbobit.net
Rapidgator.net
KatFile.com
UploadRar.com
Download 2
Turbobit.net
Rapidgator.net
KatFile.com
UploadRar.com

Tracklist:

1 - Lady - 3:52
2 - Ich Bin Zum Wetten Geboren - 2:43
3 - Mary - 2:33
4 - In Meiner Bude Flipp' Ich Aus - 3:35
5 - Haß Mich Oder Lieb' Mich - 4:15
6 - Sie Hat Meine Lunte Gefunden - 2:00
7 - Mein Schatz - 3:21
8 - Oh, Gisela - 2:32
9 - Der Junge Auf Dem Weißen Pferd - 3:32
10 - Belmondo - 2:47
11 - Gute Nacht, Hermann - 3:00

EAC-Log, CUE-Sheed & NFO:

Click to open spoiler
Exact Audio Copy V1.0 beta 3 from 29. August 2011

EAC extraction logfile from 10. October 2014, 14:01

Marius Mueller-Westernhagen / Sekt oder Selters

Used drive : MATSHITABD-MLT UJ260 Adapter: 0 ID: 1

Read mode : Secure
Utilize accurate stream : Yes
Defeat audio cache : Yes
Make use of C2 pointers : No

Read offset correction : 103
Overread into Lead-In and Lead-Out : No
Fill up missing offset samples with silence : Yes
Delete leading and trailing silent blocks : No
Null samples used in CRC calculations : Yes
Used interface : Native Win32 interface for Win NT & 2000
Gap handling : Appended to previous track

Used output format : User Defined Encoder
Selected bitrate : 1024 kBit/s
Quality : High
Add ID3 tag : No
Command line compressor : C:\Program Files (x86)\Exact Audio Copy\Flac\flac.exe
Additional command line options : -V -8 -T “Genre=%genre%” -T “Artist=%artist%” -T “Title=%title%” -T “Album=%albumtitle%” -T “Date=%year%” -T “Tracknumber=%tracknr%” -T “Comment=%comment%” %source%

TOC of the extracted CD

Track | Start | Length | Start sector | End sector
———————————————————
1 | 0:00.00 | 3:54.67 | 0 | 17616
2 | 3:54.67 | 2:45.58 | 17617 | 30049
3 | 6:40.50 | 2:35.47 | 30050 | 41721
4 | 9:16.22 | 3:38.38 | 41722 | 58109
5 | 12:54.60 | 4:14.72 | 58110 | 77231
6 | 17:09.57 | 1:58.63 | 77232 | 86144
7 | 19:08.45 | 3:23.22 | 86145 | 101391
8 | 22:31.67 | 2:32.60 | 101392 | 112851
9 | 25:04.52 | 3:34.30 | 112852 | 128931
10 | 28:39.07 | 2:48.05 | 128932 | 141536
11 | 31:27.12 | 2:57.15 | 141537 | 154826

Track 1

Filename E:\Razda4i\Marius Mueller-Westernhagen flac\Marius Mueller-Westernhagen flac\Albums\Marius Mueller-Westernhagen – Sekt oder Selters [FLAC] {(1987) 1980}\01 Lady.wav

Pre-gap length 0:00:02.00

Peak level 76.4 %
Extraction speed 2.5 X
Track quality 100.0 %
Test CRC CFBF8D8C
Copy CRC CFBF8D8C
Accurately ripped (confidence 24) [556CB8AE] (AR v2)
Copy OK

Track 2

Filename E:\Razda4i\Marius Mueller-Westernhagen flac\Marius Mueller-Westernhagen flac\Albums\Marius Mueller-Westernhagen – Sekt oder Selters [FLAC] {(1987) 1980}\02 Ich bin zum Wetten geboren.wav

Pre-gap length 0:00:00.12

Peak level 66.7 %
Extraction speed 2.6 X
Track quality 100.0 %
Test CRC B32EE388
Copy CRC B32EE388
Accurately ripped (confidence 24) [075C9ACD] (AR v2)
Copy OK

Track 3

Filename E:\Razda4i\Marius Mueller-Westernhagen flac\Marius Mueller-Westernhagen flac\Albums\Marius Mueller-Westernhagen – Sekt oder Selters [FLAC] {(1987) 1980}\03 Mary.wav

Pre-gap length 0:00:00.13

Peak level 66.7 %
Extraction speed 2.6 X
Track quality 100.0 %
Test CRC 01FBF7AA
Copy CRC 01FBF7AA
Accurately ripped (confidence 24) [725A8572] (AR v2)
Copy OK

Track 4

Filename E:\Razda4i\Marius Mueller-Westernhagen flac\Marius Mueller-Westernhagen flac\Albums\Marius Mueller-Westernhagen – Sekt oder Selters [FLAC] {(1987) 1980}\04 In meiner Bude flipp’ ich aus.wav

Pre-gap length 0:00:02.30

Peak level 62.9 %
Extraction speed 3.0 X
Track quality 100.0 %
Test CRC 44B41D1A
Copy CRC 44B41D1A
Accurately ripped (confidence 24) [FEFF72A8] (AR v2)
Copy OK

Track 5

Filename E:\Razda4i\Marius Mueller-Westernhagen flac\Marius Mueller-Westernhagen flac\Albums\Marius Mueller-Westernhagen – Sekt oder Selters [FLAC] {(1987) 1980}\05 Hass’ mich oder lieb’ mich.wav

Pre-gap length 0:00:02.30

Peak level 56.3 %
Extraction speed 2.5 X
Track quality 99.9 %
Test CRC E318F368
Copy CRC E318F368
Accurately ripped (confidence 23) [A886D359] (AR v2)
Copy OK

Track 6

Filename E:\Razda4i\Marius Mueller-Westernhagen flac\Marius Mueller-Westernhagen flac\Albums\Marius Mueller-Westernhagen – Sekt oder Selters [FLAC] {(1987) 1980}\06 Sie hat meine Lunte gefunden.wav

Pre-gap length 0:00:01.10

Peak level 65.8 %
Extraction speed 1.8 X
Track quality 99.9 %
Test CRC 4375E2C9
Copy CRC 4375E2C9
Accurately ripped (confidence 22) [AB8C2213] (AR v2)
Copy OK

Track 7

Filename E:\Razda4i\Marius Mueller-Westernhagen flac\Marius Mueller-Westernhagen flac\Albums\Marius Mueller-Westernhagen – Sekt oder Selters [FLAC] {(1987) 1980}\07 Mein Schatz.wav

Pre-gap length 0:00:00.28

Peak level 80.0 %
Extraction speed 3.4 X
Track quality 100.0 %
Test CRC 21ED2FC1
Copy CRC 21ED2FC1
Accurately ripped (confidence 22) [4E873892] (AR v2)
Copy OK

Track 8

Filename E:\Razda4i\Marius Mueller-Westernhagen flac\Marius Mueller-Westernhagen flac\Albums\Marius Mueller-Westernhagen – Sekt oder Selters [FLAC] {(1987) 1980}\08 Oh, Gisela.wav

Pre-gap length 0:00:00.35

Peak level 62.6 %
Extraction speed 3.3 X
Track quality 100.0 %
Test CRC 6320A8D1
Copy CRC 6320A8D1
Accurately ripped (confidence 23) [15E8533A] (AR v2)
Copy OK

Track 9

Filename E:\Razda4i\Marius Mueller-Westernhagen flac\Marius Mueller-Westernhagen flac\Albums\Marius Mueller-Westernhagen – Sekt oder Selters [FLAC] {(1987) 1980}\09 Der Junge auf dem weissen Pferd.wav

Pre-gap length 0:00:00.17

Peak level 69.7 %
Extraction speed 3.6 X
Track quality 100.0 %
Test CRC 2B2D7197
Copy CRC 2B2D7197
Accurately ripped (confidence 22) [C2D5963B] (AR v2)
Copy OK

Track 10

Filename E:\Razda4i\Marius Mueller-Westernhagen flac\Marius Mueller-Westernhagen flac\Albums\Marius Mueller-Westernhagen – Sekt oder Selters [FLAC] {(1987) 1980}\10 Belmondo.wav

Pre-gap length 0:00:01.52

Peak level 66.3 %
Extraction speed 3.6 X
Track quality 100.0 %
Test CRC DDC97B4A
Copy CRC DDC97B4A
Accurately ripped (confidence 23) [FBB09704] (AR v2)
Copy OK

Track 11

Filename E:\Razda4i\Marius Mueller-Westernhagen flac\Marius Mueller-Westernhagen flac\Albums\Marius Mueller-Westernhagen – Sekt oder Selters [FLAC] {(1987) 1980}\11 Gute Nacht, Hermann.wav

Pre-gap length 0:00:00.10

Peak level 59.4 %
Extraction speed 3.7 X
Track quality 100.0 %
Test CRC CD08E174
Copy CRC CD08E174
Accurately ripped (confidence 23) [7EF2539C] (AR v2)
Copy OK

All tracks accurately ripped

No errors occurred

End of status report

==== Log checksum A35D503519C448B6D8E5202AA53810CA206A8147B67CEED817E633DA3680675C ====

REM GENRE Rock
REM DATE 1980
REM DISCID 8208100B
REM COMMENT “ExactAudioCopy v1.0b3”
PERFORMER “Marius Mueller-Westernhagen”
TITLE “Sekt oder Selters”
FILE “01 Lady.wav” WAVE
TRACK 01 AUDIO
TITLE “Lady”
PERFORMER “Marius Müller-Westernhagen”
INDEX 01 00:00:00
TRACK 02 AUDIO
TITLE “Ich bin zum Wetten geboren”
PERFORMER “Marius Müller-Westernhagen”
INDEX 00 03:54:55
FILE “02 Ich bin zum Wetten geboren.wav” WAVE
INDEX 01 00:00:00
TRACK 03 AUDIO
TITLE “Mary”
PERFORMER “Marius Müller-Westernhagen”
INDEX 00 02:45:45
FILE “03 Mary.wav” WAVE
INDEX 01 00:00:00
TRACK 04 AUDIO
TITLE “In meiner Bude flipp’ ich aus”
PERFORMER “Marius Müller-Westernhagen”
INDEX 00 02:33:17
FILE “04 In meiner Bude flipp’ ich aus.wav” WAVE
INDEX 01 00:00:00
TRACK 05 AUDIO
TITLE “Hass’ mich oder lieb’ mich”
PERFORMER “Marius Müller-Westernhagen”
INDEX 00 03:36:08
FILE “05 Hass’ mich oder lieb’ mich.wav” WAVE
INDEX 01 00:00:00
TRACK 06 AUDIO
TITLE “Sie hat meine Lunte gefunden”
PERFORMER “Marius Müller-Westernhagen”
INDEX 00 04:13:62
FILE “06 Sie hat meine Lunte gefunden.wav” WAVE
INDEX 01 00:00:00
TRACK 07 AUDIO
TITLE “Mein Schatz”
PERFORMER “Marius Müller-Westernhagen”
INDEX 00 01:58:35
FILE “07 Mein Schatz.wav” WAVE
INDEX 01 00:00:00
TRACK 08 AUDIO
TITLE “Oh, Gisela”
PERFORMER “Marius Müller-Westernhagen”
INDEX 00 03:22:62
FILE “08 Oh, Gisela.wav” WAVE
INDEX 01 00:00:00
TRACK 09 AUDIO
TITLE “Der Junge auf dem weissen Pferd”
PERFORMER “Marius Müller-Westernhagen”
INDEX 00 02:32:43
FILE “09 Der Junge auf dem weissen Pferd.wav” WAVE
INDEX 01 00:00:00
TRACK 10 AUDIO
TITLE “Belmondo”
PERFORMER “Marius Müller-Westernhagen”
INDEX 00 03:32:53
FILE “10 Belmondo.wav” WAVE
INDEX 01 00:00:00
TRACK 11 AUDIO
TITLE “Gute Nacht, Hermann”
PERFORMER “Marius Müller-Westernhagen”
INDEX 00 02:47:70
FILE “11 Gute Nacht, Hermann.wav” WAVE
INDEX 01 00:00:00


Leave a Reply

Your email address will not be published. Required fields are marked *

This site uses Akismet to reduce spam. Learn how your comment data is processed.