Westernhagen – Radio Maria




Artist: Westernhagen
Year: 1998
Genre: Rock
Notes: Discogs
Add. Notes:
Encoder: FLAC
Bitrate: ~900 kBit/s (VBR)
Size: 369,29 MB
Password: “slam” (without ” “)


Tracklist:

1 - Jesus - 4:03
2 - Lola Blue - 4:51
3 - Supermann - 4:44
4 - Walkman - 2:46
5 - Hoffnung - 4:26
6 - Alleine - 3:05
7 - Durch Deine Liebe - 6:11
8 - Rosamunde - 3:40
9 - Du Hast Dich Nie Gewehrt - 4:31
10 - Wo Ist Behle? - 3:06
11 - Wieder Hier - 6:26
12 - Kind Von Gestern - 4:34

EAC-Log, CUE-Sheed & NFO:

Click to open spoiler
Exact Audio Copy V1.0 beta 3 from 29. August 2011

EAC extraction logfile from 1. October 2014, 14:39

Marius Mueller-Westernhagen / Radio Maria

Used drive : MATSHITABD-MLT UJ260 Adapter: 0 ID: 1

Read mode : Secure
Utilize accurate stream : Yes
Defeat audio cache : Yes
Make use of C2 pointers : No

Read offset correction : 103
Overread into Lead-In and Lead-Out : No
Fill up missing offset samples with silence : Yes
Delete leading and trailing silent blocks : No
Null samples used in CRC calculations : Yes
Used interface : Native Win32 interface for Win NT & 2000
Gap handling : Appended to previous track

Used output format : User Defined Encoder
Selected bitrate : 1024 kBit/s
Quality : High
Add ID3 tag : No
Command line compressor : C:\Program Files (x86)\Exact Audio Copy\Flac\flac.exe
Additional command line options : -V -8 -T “Genre=%genre%” -T “Artist=%artist%” -T “Title=%title%” -T “Album=%albumtitle%” -T “Date=%year%” -T “Tracknumber=%tracknr%” -T “Comment=%comment%” %source%

TOC of the extracted CD

Track | Start | Length | Start sector | End sector
———————————————————
1 | 0:00.00 | 4:04.40 | 0 | 18339
2 | 4:04.40 | 4:51.12 | 18340 | 40176
3 | 8:55.52 | 4:43.43 | 40177 | 61444
4 | 13:39.20 | 2:46.47 | 61445 | 73941
5 | 16:25.67 | 4:28.73 | 73942 | 94114
6 | 20:54.65 | 3:08.05 | 94115 | 108219
7 | 24:02.70 | 6:12.25 | 108220 | 136144
8 | 30:15.20 | 3:41.50 | 136145 | 152769
9 | 33:56.70 | 4:33.72 | 152770 | 173316
10 | 38:30.67 | 3:07.73 | 173317 | 187414
11 | 41:38.65 | 6:33.45 | 187415 | 216934
12 | 48:12.35 | 4:36.35 | 216935 | 237669

Track 1

Filename E:\Razda4i\Marius Mueller-Westernhagen flac\Marius Mueller-Westernhagen flac\Albums\Marius Mueller-Westernhagen – Radio Maria [FLAC] {1998}\01 Jesus.wav

Pre-gap length 0:00:02.00

Peak level 99.6 %
Extraction speed 2.5 X
Track quality 100.0 %
Test CRC 468A3762
Copy CRC 468A3762
Accurately ripped (confidence 88) [FBB70C62] (AR v2)
Copy OK

Track 2

Filename E:\Razda4i\Marius Mueller-Westernhagen flac\Marius Mueller-Westernhagen flac\Albums\Marius Mueller-Westernhagen – Radio Maria [FLAC] {1998}\02 Lola Blue.wav

Peak level 95.1 %
Extraction speed 2.2 X
Track quality 99.9 %
Test CRC 990ECA38
Copy CRC 990ECA38
Accurately ripped (confidence 88) [867DA453] (AR v2)
Copy OK

Track 3

Filename E:\Razda4i\Marius Mueller-Westernhagen flac\Marius Mueller-Westernhagen flac\Albums\Marius Mueller-Westernhagen – Radio Maria [FLAC] {1998}\03 Supermann.wav

Peak level 97.1 %
Extraction speed 3.1 X
Track quality 100.0 %
Test CRC E625979B
Copy CRC E625979B
Accurately ripped (confidence 88) [D01405CD] (AR v2)
Copy OK

Track 4

Filename E:\Razda4i\Marius Mueller-Westernhagen flac\Marius Mueller-Westernhagen flac\Albums\Marius Mueller-Westernhagen – Radio Maria [FLAC] {1998}\04 Walkman.wav

Peak level 97.1 %
Extraction speed 2.1 X
Track quality 99.9 %
Test CRC B06A7113
Copy CRC B06A7113
Accurately ripped (confidence 88) [673FBB64] (AR v2)
Copy OK

Track 5

Filename E:\Razda4i\Marius Mueller-Westernhagen flac\Marius Mueller-Westernhagen flac\Albums\Marius Mueller-Westernhagen – Radio Maria [FLAC] {1998}\05 Hoffnung.wav

Pre-gap length 0:00:00.52

Peak level 95.1 %
Extraction speed 3.4 X
Track quality 100.0 %
Test CRC 5400E5A9
Copy CRC 5400E5A9
Accurately ripped (confidence 88) [CC8C1330] (AR v2)
Copy OK

Track 6

Filename E:\Razda4i\Marius Mueller-Westernhagen flac\Marius Mueller-Westernhagen flac\Albums\Marius Mueller-Westernhagen – Radio Maria [FLAC] {1998}\06 Alleine.wav

Pre-gap length 0:00:01.70

Peak level 95.1 %
Extraction speed 3.4 X
Track quality 100.0 %
Test CRC EFBC4CBC
Copy CRC EFBC4CBC
Accurately ripped (confidence 87) [A209490E] (AR v2)
Copy OK

Track 7

Filename E:\Razda4i\Marius Mueller-Westernhagen flac\Marius Mueller-Westernhagen flac\Albums\Marius Mueller-Westernhagen – Radio Maria [FLAC] {1998}\07 Durch deine Liebe.wav

Pre-gap length 0:00:02.25

Peak level 92.8 %
Extraction speed 3.9 X
Track quality 100.0 %
Test CRC 62154984
Copy CRC 62154984
Accurately ripped (confidence 87) [1C47D369] (AR v2)
Copy OK

Track 8

Filename E:\Razda4i\Marius Mueller-Westernhagen flac\Marius Mueller-Westernhagen flac\Albums\Marius Mueller-Westernhagen – Radio Maria [FLAC] {1998}\08 Rosamunde.wav

Pre-gap length 0:00:00.48

Peak level 95.1 %
Extraction speed 3.8 X
Track quality 100.0 %
Test CRC 9D1D70B4
Copy CRC 9D1D70B4
Accurately ripped (confidence 88) [E482B700] (AR v2)
Copy OK

Track 9

Filename E:\Razda4i\Marius Mueller-Westernhagen flac\Marius Mueller-Westernhagen flac\Albums\Marius Mueller-Westernhagen – Radio Maria [FLAC] {1998}\09 Du hast dich nie gewehrt.wav

Pre-gap length 0:00:01.03

Peak level 95.1 %
Extraction speed 4.1 X
Track quality 100.0 %
Test CRC D227CFD6
Copy CRC D227CFD6
Accurately ripped (confidence 88) [D54620A8] (AR v2)
Copy OK

Track 10

Filename E:\Razda4i\Marius Mueller-Westernhagen flac\Marius Mueller-Westernhagen flac\Albums\Marius Mueller-Westernhagen – Radio Maria [FLAC] {1998}\10 Wo ist Behle.wav

Pre-gap length 0:00:02.07

Peak level 97.1 %
Extraction speed 4.0 X
Track quality 100.0 %
Test CRC 5D9F3744
Copy CRC 5D9F3744
Accurately ripped (confidence 86) [8F17EB96] (AR v2)
Copy OK

Track 11

Filename E:\Razda4i\Marius Mueller-Westernhagen flac\Marius Mueller-Westernhagen flac\Albums\Marius Mueller-Westernhagen – Radio Maria [FLAC] {1998}\11 Wieder hier.wav

Pre-gap length 0:00:01.15

Peak level 99.8 %
Extraction speed 4.6 X
Track quality 100.0 %
Test CRC 4012770B
Copy CRC 4012770B
Accurately ripped (confidence 87) [529D8069] (AR v2)
Copy OK

Track 12

Filename E:\Razda4i\Marius Mueller-Westernhagen flac\Marius Mueller-Westernhagen flac\Albums\Marius Mueller-Westernhagen – Radio Maria [FLAC] {1998}\12 Kind von gestern.wav

Pre-gap length 0:00:06.33

Peak level 71.6 %
Extraction speed 4.6 X
Track quality 100.0 %
Test CRC D8DD79C1
Copy CRC D8DD79C1
Accurately ripped (confidence 87) [F50615F0] (AR v2)
Copy OK

All tracks accurately ripped

No errors occurred

End of status report

==== Log checksum 348C46CA1BF2B546D7C79ED72488A262F867EBFD371AA10B482DDD5D0ADAA1D1 ====

REM GENRE Rock
REM DATE 1998
REM DISCID 9F0C600C
REM COMMENT “ExactAudioCopy v1.0b3”
PERFORMER “Marius Mueller-Westernhagen”
TITLE “Radio Maria”
FILE “01 Jesus.wav” WAVE
TRACK 01 AUDIO
TITLE “Jesus”
PERFORMER “Marius Müller-Westernhagen”
INDEX 01 00:00:00
FILE “02 Lola Blue.wav” WAVE
TRACK 02 AUDIO
TITLE “Lola Blue”
PERFORMER “Marius Müller-Westernhagen”
INDEX 01 00:00:00
FILE “03 Supermann.wav” WAVE
TRACK 03 AUDIO
TITLE “Supermann”
PERFORMER “Marius Müller-Westernhagen”
INDEX 01 00:00:00
FILE “04 Walkman.wav” WAVE
TRACK 04 AUDIO
TITLE “Walkman”
PERFORMER “Marius Müller-Westernhagen”
INDEX 01 00:00:00
TRACK 05 AUDIO
TITLE “Hoffnung”
PERFORMER “Marius Müller-Westernhagen”
INDEX 00 02:45:70
FILE “05 Hoffnung.wav” WAVE
INDEX 01 00:00:00
TRACK 06 AUDIO
TITLE “Alleine”
PERFORMER “Marius Müller-Westernhagen”
INDEX 00 04:27:03
FILE “06 Alleine.wav” WAVE
INDEX 01 00:00:00
TRACK 07 AUDIO
TITLE “Durch deine Liebe”
PERFORMER “Marius Müller-Westernhagen”
INDEX 00 03:05:55
FILE “07 Durch deine Liebe.wav” WAVE
INDEX 01 00:00:00
TRACK 08 AUDIO
TITLE “Rosamunde”
PERFORMER “Marius Müller-Westernhagen”
INDEX 00 06:11:52
FILE “08 Rosamunde.wav” WAVE
INDEX 01 00:00:00
TRACK 09 AUDIO
TITLE “Du hast dich nie gewehrt”
PERFORMER “Marius Müller-Westernhagen”
INDEX 00 03:40:47
FILE “09 Du hast dich nie gewehrt.wav” WAVE
INDEX 01 00:00:00
TRACK 10 AUDIO
TITLE “Wo ist Behle?”
PERFORMER “Marius Müller-Westernhagen”
INDEX 00 04:31:65
FILE “10 Wo ist Behle.wav” WAVE
INDEX 01 00:00:00
TRACK 11 AUDIO
TITLE “Wieder hier”
PERFORMER “Marius Müller-Westernhagen”
INDEX 00 03:06:58
FILE “11 Wieder hier.wav” WAVE
INDEX 01 00:00:00
TRACK 12 AUDIO
TITLE “Kind von gestern”
PERFORMER “Marius Müller-Westernhagen”
INDEX 00 06:27:12
FILE “12 Kind von gestern.wav” WAVE
INDEX 01 00:00:00

Leave a Reply

Your email address will not be published. Required fields are marked *

This site uses Akismet to reduce spam. Learn how your comment data is processed.