Westernhagen – Mit Pfefferminz bin ich dein Prinz




Artist: Westernhagen
Year: 1978
Genre: Rock
Notes: Discogs
Add. Notes:
Encoder: FLAC
Bitrate: ~800 kBit/s (VBR)
Size: 240,22 MB
Password: “slam” (without ” “)


Tracklist:

1 - Mit 18 - 5:09
2 - Zieh' Dir Bloß Die Schuhe Aus - 3:00
3 - Willi Wucher - 4:08
4 - Oh, Margarethe - 2:58
5 - Alles In Den Wind - 3:40
6 - Mit Pfefferminz Bin Ich Dein Prinz - 2:45
7 - Dicke - 4:05
8 - Giselher - 5:32
9 - Grüß Mir Die Genossen - 3:45
10 - Johnny W. - 3:25

EAC-Log, CUE-Sheed & NFO:

Click to open spoiler
Exact Audio Copy V1.0 beta 3 from 29. August 2011

EAC extraction logfile from 30. September 2014, 13:23

Marius Mueller-Westernhagen / Mit Pfefferminz bin ich dein Prinz

Used drive : MATSHITABD-MLT UJ260 Adapter: 0 ID: 1

Read mode : Secure
Utilize accurate stream : Yes
Defeat audio cache : Yes
Make use of C2 pointers : No

Read offset correction : 103
Overread into Lead-In and Lead-Out : No
Fill up missing offset samples with silence : Yes
Delete leading and trailing silent blocks : No
Null samples used in CRC calculations : Yes
Used interface : Native Win32 interface for Win NT & 2000
Gap handling : Appended to previous track

Used output format : User Defined Encoder
Selected bitrate : 1024 kBit/s
Quality : High
Add ID3 tag : No
Command line compressor : C:\Program Files (x86)\Exact Audio Copy\Flac\flac.exe
Additional command line options : -V -8 -T “Genre=%genre%” -T “Artist=%artist%” -T “Title=%title%” -T “Album=%albumtitle%” -T “Date=%year%” -T “Tracknumber=%tracknr%” -T “Comment=%comment%” %source%

TOC of the extracted CD

Track | Start | Length | Start sector | End sector
———————————————————
1 | 0:00.00 | 5:13.25 | 0 | 23499
2 | 5:13.25 | 3:04.60 | 23500 | 37359
3 | 8:18.10 | 4:11.15 | 37360 | 56199
4 | 12:29.25 | 3:00.63 | 56200 | 69762
5 | 15:30.13 | 3:44.00 | 69763 | 86562
6 | 19:14.13 | 2:49.47 | 86563 | 99284
7 | 22:03.60 | 4:09.35 | 99285 | 117994
8 | 26:13.20 | 5:37.08 | 117995 | 143277
9 | 31:50.28 | 3:48.02 | 143278 | 160379
10 | 35:38.30 | 3:27.00 | 160380 | 175904

Track 1

Filename E:\Razda4i\Marius Mueller-Westernhagen flac\Marius Mueller-Westernhagen flac\Albums\Marius Mueller-Westernhagen ‎- Mit Pfefferminz bin ich dein Prinz [FLAC] {(1987) 1978}\01 Mit 18.wav

Pre-gap length 0:00:02.00

Peak level 80.9 %
Extraction speed 2.6 X
Track quality 100.0 %
Test CRC BA9A746D
Copy CRC BA9A746D
Accurately ripped (confidence 143) [E7D73AA0] (AR v2)
Copy OK

Track 2

Filename E:\Razda4i\Marius Mueller-Westernhagen flac\Marius Mueller-Westernhagen flac\Albums\Marius Mueller-Westernhagen ‎- Mit Pfefferminz bin ich dein Prinz [FLAC] {(1987) 1978}\02 Zieh’ dir bloss die Schuhe aus.wav

Pre-gap length 0:00:01.15

Peak level 61.2 %
Extraction speed 2.7 X
Track quality 100.0 %
Test CRC 7E67B74E
Copy CRC 7E67B74E
Accurately ripped (confidence 142) [867B1AC4] (AR v2)
Copy OK

Track 3

Filename E:\Razda4i\Marius Mueller-Westernhagen flac\Marius Mueller-Westernhagen flac\Albums\Marius Mueller-Westernhagen ‎- Mit Pfefferminz bin ich dein Prinz [FLAC] {(1987) 1978}\03 Willi Wucher.wav

Pre-gap length 0:00:02.67

Peak level 89.4 %
Extraction speed 3.0 X
Track quality 100.0 %
Test CRC B76A748F
Copy CRC B76A748F
Accurately ripped (confidence 146) [470F1257] (AR v2)
Copy OK

Track 4

Filename E:\Razda4i\Marius Mueller-Westernhagen flac\Marius Mueller-Westernhagen flac\Albums\Marius Mueller-Westernhagen ‎- Mit Pfefferminz bin ich dein Prinz [FLAC] {(1987) 1978}\04 Oh, Margarethe.wav

Pre-gap length 0:00:02.40

Peak level 80.5 %
Extraction speed 3.0 X
Track quality 100.0 %
Test CRC 8DEB7C8C
Copy CRC 8DEB7C8C
Accurately ripped (confidence 145) [1E5F5DE7] (AR v2)
Copy OK

Track 5

Filename E:\Razda4i\Marius Mueller-Westernhagen flac\Marius Mueller-Westernhagen flac\Albums\Marius Mueller-Westernhagen ‎- Mit Pfefferminz bin ich dein Prinz [FLAC] {(1987) 1978}\05 Alles in den Wind.wav

Pre-gap length 0:00:01.13

Peak level 74.3 %
Extraction speed 3.3 X
Track quality 100.0 %
Test CRC 05762730
Copy CRC 05762730
Accurately ripped (confidence 147) [B7FFC989] (AR v2)
Copy OK

Track 6

Filename E:\Razda4i\Marius Mueller-Westernhagen flac\Marius Mueller-Westernhagen flac\Albums\Marius Mueller-Westernhagen ‎- Mit Pfefferminz bin ich dein Prinz [FLAC] {(1987) 1978}\06 Mit Pfefferminz bin ich dein Prinz.wav

Pre-gap length 0:00:02.33

Peak level 77.7 %
Extraction speed 2.2 X
Track quality 99.9 %
Test CRC 37F9A558
Copy CRC 37F9A558
Accurately ripped (confidence 147) [BF79394E] (AR v2)
Copy OK

Track 7

Filename E:\Razda4i\Marius Mueller-Westernhagen flac\Marius Mueller-Westernhagen flac\Albums\Marius Mueller-Westernhagen ‎- Mit Pfefferminz bin ich dein Prinz [FLAC] {(1987) 1978}\07 Dicke.wav

Pre-gap length 0:00:02.05

Peak level 88.9 %
Extraction speed 3.6 X
Track quality 100.0 %
Test CRC 60DC8F81
Copy CRC 60DC8F81
Accurately ripped (confidence 146) [2A23AEB1] (AR v2)
Copy OK

Track 8

Filename E:\Razda4i\Marius Mueller-Westernhagen flac\Marius Mueller-Westernhagen flac\Albums\Marius Mueller-Westernhagen ‎- Mit Pfefferminz bin ich dein Prinz [FLAC] {(1987) 1978}\08 Giselher.wav

Pre-gap length 0:00:03.45

Peak level 83.9 %
Extraction speed 3.9 X
Track quality 100.0 %
Test CRC 9128C085
Copy CRC 9128C085
Accurately ripped (confidence 145) [97424D08] (AR v2)
Copy OK

Track 9

Filename E:\Razda4i\Marius Mueller-Westernhagen flac\Marius Mueller-Westernhagen flac\Albums\Marius Mueller-Westernhagen ‎- Mit Pfefferminz bin ich dein Prinz [FLAC] {(1987) 1978}\09 Gruess mir die Genossen.wav

Pre-gap length 0:00:02.60

Peak level 80.8 %
Extraction speed 3.9 X
Track quality 100.0 %
Test CRC 14757A6C
Copy CRC 14757A6C
Accurately ripped (confidence 146) [E254FD57] (AR v2)
Copy OK

Track 10

Filename E:\Razda4i\Marius Mueller-Westernhagen flac\Marius Mueller-Westernhagen flac\Albums\Marius Mueller-Westernhagen ‎- Mit Pfefferminz bin ich dein Prinz [FLAC] {(1987) 1978}\10 Johnny W..wav

Pre-gap length 0:00:02.02

Peak level 69.3 %
Extraction speed 4.0 X
Track quality 100.0 %
Test CRC BBF4E405
Copy CRC BBF4E405
Accurately ripped (confidence 147) [12131A54] (AR v2)
Copy OK

All tracks accurately ripped

No errors occurred

End of status report

==== Log checksum D5AE36F524B61F060354B575EC845E7DAC1C3AF726D984A3DF3AC57E13CF3B34 ====

REM GENRE Deutsch-Rock
REM DATE 1978
REM DISCID 6909290A
REM COMMENT “ExactAudioCopy v1.0b3”
PERFORMER “Marius Mueller-Westernhagen”
TITLE “Mit Pfefferminz bin ich dein Prinz”
FILE “01 Mit 18.wav” WAVE
TRACK 01 AUDIO
TITLE “Mit 18”
PERFORMER “Marius Müller-Westernhagen”
INDEX 01 00:00:00
TRACK 02 AUDIO
TITLE “Zieh’ dir bloss die Schuhe aus”
PERFORMER “Marius Müller-Westernhagen”
INDEX 00 05:12:10
FILE “02 Zieh’ dir bloss die Schuhe aus.wav” WAVE
INDEX 01 00:00:00
TRACK 03 AUDIO
TITLE “Willi Wucher”
PERFORMER “Marius Müller-Westernhagen”
INDEX 00 03:01:68
FILE “03 Willi Wucher.wav” WAVE
INDEX 01 00:00:00
TRACK 04 AUDIO
TITLE “Oh, Margarethe”
PERFORMER “Marius Müller-Westernhagen”
INDEX 00 04:08:50
FILE “04 Oh, Margarethe.wav” WAVE
INDEX 01 00:00:00
TRACK 05 AUDIO
TITLE “Alles in den Wind”
PERFORMER “Marius Müller-Westernhagen”
INDEX 00 02:59:50
FILE “05 Alles in den Wind.wav” WAVE
INDEX 01 00:00:00
TRACK 06 AUDIO
TITLE “Mit Pfefferminz bin ich dein Prinz”
PERFORMER “Marius Müller-Westernhagen”
INDEX 00 03:41:42
FILE “06 Mit Pfefferminz bin ich dein Prinz.wav” WAVE
INDEX 01 00:00:00
TRACK 07 AUDIO
TITLE “Dicke”
PERFORMER “Marius Müller-Westernhagen”
INDEX 00 02:47:42
FILE “07 Dicke.wav” WAVE
INDEX 01 00:00:00
TRACK 08 AUDIO
TITLE “Giselher”
PERFORMER “Marius Müller-Westernhagen”
INDEX 00 04:05:65
FILE “08 Giselher.wav” WAVE
INDEX 01 00:00:00
TRACK 09 AUDIO
TITLE “Gruess mir die Genossen”
PERFORMER “Marius Müller-Westernhagen”
INDEX 00 05:34:23
FILE “09 Gruess mir die Genossen.wav” WAVE
INDEX 01 00:00:00
TRACK 10 AUDIO
TITLE “Johnny W.”
PERFORMER “Marius Müller-Westernhagen”
INDEX 00 03:46:00
FILE “10 Johnny W..wav” WAVE
INDEX 01 00:00:00

Leave a Reply

Your email address will not be published. Required fields are marked *

Enter the text from the image below
 

This site uses Akismet to reduce spam. Learn how your comment data is processed.