Westernhagen – Keine Zeit




No Cover available

Artist: Westernhagen
Year: 1996
Genre: Rock
Notes: Discogs
Add. Notes:
Watch Songs on: YouTube
Cover incl.: Yes
Encoder: FLAC
Bitrate: ~1000 kBit/s (44.1 kHz/16 Bit/s)
Log & Cue incl.: Yes/Yes
Size: 665 MB
Password: “slam” (without ” “)


All Downloads/Hosters are compatible

Download 1
KatFile.com
Turbobit.net
Rapidgator.net
FileFactory.com
Download 2
KatFile.com
Turbobit.net
Rapidgator.net
FileFactory.com

Tracklist:

1-01 - Keine Zeit (Übungsraum) - 4:55
1-02 - Schweigen Ist Feige (Übungsraum) - 3:42
1-03 - Mit Pfefferminz Bin Ich Dein Prinz - 3:29
1-04 - Es Geht Mir Gut - 3:59
1-05 - Fertig - 3:06
1-06 - Weil Ich Dich Liebe - 5:31
1-07 - Willenlos - 3:25
1-08 - Nur Ein Traum - 4:15
1-09 - Krieg - 5:50
1-10 - Weisst Du, Dass Ich Glücklich Bin - 6:41
2-01 - Mit 18 - 8:21
2-02 - Steh' Auf - 4:55
2-03 - Rosi (Männer Sind So Schwach) - 5:00
2-04 - Ich Brauch 'Ne Frau - 10:08
2-05 - Sexy - 5:03
2-06 - Superstar - 6:50
2-07 - Freiheit - 5:24
2-08 - Johnny Walker - 4:44

EAC-Log, CUE-Sheed & NFO:

Click to open spoiler
Exact Audio Copy V1.0 beta 3 from 29. August 2011

EAC extraction logfile from 12. October 2014, 13:47

Marius Mueller-Westernhagen / Keine Zeit CD1

Used drive : MATSHITABD-MLT UJ260 Adapter: 0 ID: 1

Read mode : Secure
Utilize accurate stream : Yes
Defeat audio cache : Yes
Make use of C2 pointers : No

Read offset correction : 103
Overread into Lead-In and Lead-Out : No
Fill up missing offset samples with silence : Yes
Delete leading and trailing silent blocks : No
Null samples used in CRC calculations : Yes
Used interface : Native Win32 interface for Win NT & 2000
Gap handling : Appended to previous track

Used output format : User Defined Encoder
Selected bitrate : 1024 kBit/s
Quality : High
Add ID3 tag : No
Command line compressor : C:\Program Files (x86)\Exact Audio Copy\Flac\flac.exe
Additional command line options : -V -8 -T “Genre=%genre%” -T “Artist=%artist%” -T “Title=%title%” -T “Album=%albumtitle%” -T “Date=%year%” -T “Tracknumber=%tracknr%” -T “Comment=%comment%” %source%

TOC of the extracted CD

Track | Start | Length | Start sector | End sector
———————————————————
1 | 0:00.00 | 4:55.10 | 0 | 22134
2 | 4:55.10 | 3:42.27 | 22135 | 38811
3 | 8:37.37 | 3:29.15 | 38812 | 54501
4 | 12:06.52 | 3:59.65 | 54502 | 72491
5 | 16:06.42 | 3:06.48 | 72492 | 86489
6 | 19:13.15 | 5:31.42 | 86490 | 111356
7 | 24:44.57 | 3:25.00 | 111357 | 126731
8 | 28:09.57 | 4:15.20 | 126732 | 145876
9 | 32:25.02 | 5:50.00 | 145877 | 172126
10 | 38:15.02 | 6:41.33 | 172127 | 202234

Track 1

Filename E:\Razda4i\Marius Mueller-Westernhagen\Marius Mueller-Westernhagen flac\Live\Marius Mueller-Westernhagen – Keine Zeit [FLAC] {1996}\01 Keine Zeit (Uebungsraum).wav

Pre-gap length 0:00:02.00

Peak level 99.4 %
Extraction speed 2.1 X
Track quality 99.9 %
Test CRC 1D1CB2B5
Copy CRC 1D1CB2B5
Accurately ripped (confidence 32) [0AB2B4BD] (AR v2)
Copy OK

Track 2

Filename E:\Razda4i\Marius Mueller-Westernhagen\Marius Mueller-Westernhagen flac\Live\Marius Mueller-Westernhagen – Keine Zeit [FLAC] {1996}\02 Schweigen ist feige (Uebungsraum).wav

Pre-gap length 0:00:01.35

Peak level 99.6 %
Extraction speed 2.8 X
Track quality 100.0 %
Test CRC 2D67F7A6
Copy CRC 2D67F7A6
Accurately ripped (confidence 31) [480BD12B] (AR v2)
Copy OK

Track 3

Filename E:\Razda4i\Marius Mueller-Westernhagen\Marius Mueller-Westernhagen flac\Live\Marius Mueller-Westernhagen – Keine Zeit [FLAC] {1996}\03 Mit Pfefferminz bin ich dein Prinz.wav

Pre-gap length 0:00:02.50

Peak level 99.6 %
Extraction speed 2.9 X
Track quality 100.0 %
Test CRC 67FD1DFE
Copy CRC 67FD1DFE
Accurately ripped (confidence 30) [F600F47C] (AR v2)
Copy OK

Track 4

Filename E:\Razda4i\Marius Mueller-Westernhagen\Marius Mueller-Westernhagen flac\Live\Marius Mueller-Westernhagen – Keine Zeit [FLAC] {1996}\04 Es geht mir gut.wav

Pre-gap length 0:00:00.02

Peak level 100.0 %
Extraction speed 3.1 X
Track quality 100.0 %
Test CRC 33A42B16
Copy CRC 33A42B16
Accurately ripped (confidence 32) [2FAAE575] (AR v2)
Copy OK

Track 5

Filename E:\Razda4i\Marius Mueller-Westernhagen\Marius Mueller-Westernhagen flac\Live\Marius Mueller-Westernhagen – Keine Zeit [FLAC] {1996}\05 Fertig.wav

Pre-gap length 0:00:00.02

Peak level 100.0 %
Extraction speed 3.1 X
Track quality 100.0 %
Test CRC E92E00DD
Copy CRC E92E00DD
Accurately ripped (confidence 31) [BF182416] (AR v2)
Copy OK

Track 6

Filename E:\Razda4i\Marius Mueller-Westernhagen\Marius Mueller-Westernhagen flac\Live\Marius Mueller-Westernhagen – Keine Zeit [FLAC] {1996}\06 Weil ich dich liebe.wav

Pre-gap length 0:00:00.03

Peak level 98.5 %
Extraction speed 3.6 X
Track quality 100.0 %
Test CRC FCD899D9
Copy CRC FCD899D9
Accurately ripped (confidence 31) [9483E6A5] (AR v2)
Copy OK

Track 7

Filename E:\Razda4i\Marius Mueller-Westernhagen\Marius Mueller-Westernhagen flac\Live\Marius Mueller-Westernhagen – Keine Zeit [FLAC] {1996}\07 Willenlos.wav

Pre-gap length 0:00:00.02

Peak level 100.0 %
Extraction speed 3.6 X
Track quality 100.0 %
Test CRC 2D37E048
Copy CRC 2D37E048
Accurately ripped (confidence 31) [B2230CB4] (AR v2)
Copy OK

Track 8

Filename E:\Razda4i\Marius Mueller-Westernhagen\Marius Mueller-Westernhagen flac\Live\Marius Mueller-Westernhagen – Keine Zeit [FLAC] {1996}\08 Nur ein Traum.wav

Pre-gap length 0:00:00.07

Peak level 100.0 %
Extraction speed 2.8 X
Track quality 99.9 %
Test CRC 83044D3A
Copy CRC 83044D3A
Accurately ripped (confidence 31) [1879E34E] (AR v2)
Copy OK

Track 9

Filename E:\Razda4i\Marius Mueller-Westernhagen\Marius Mueller-Westernhagen flac\Live\Marius Mueller-Westernhagen – Keine Zeit [FLAC] {1996}\09 Krieg.wav

Pre-gap length 0:00:00.02

Peak level 95.1 %
Extraction speed 4.2 X
Track quality 100.0 %
Test CRC 26C092E2
Copy CRC 26C092E2
Accurately ripped (confidence 32) [762A15C9] (AR v2)
Copy OK

Track 10

Filename E:\Razda4i\Marius Mueller-Westernhagen\Marius Mueller-Westernhagen flac\Live\Marius Mueller-Westernhagen – Keine Zeit [FLAC] {1996}\10 Weisst du, dass ich gluecklich bin.wav

Pre-gap length 0:00:00.02

Peak level 99.3 %
Extraction speed 4.5 X
Track quality 100.0 %
Test CRC 984B3324
Copy CRC 984B3324
Accurately ripped (confidence 31) [64E42DF0] (AR v2)
Copy OK

All tracks accurately ripped

No errors occurred

End of status report

==== Log checksum B8AFE816420F47B42F694575DD729B2AA5FCDA268D387823998794A1AFB5D5EF ====

Exact Audio Copy V1.0 beta 3 from 29. August 2011

EAC extraction logfile from 12. October 2014, 14:32

Marius Mueller-Westernhagen / Keine Zeit CD2

Used drive : MATSHITABD-MLT UJ260 Adapter: 0 ID: 1

Read mode : Secure
Utilize accurate stream : Yes
Defeat audio cache : Yes
Make use of C2 pointers : No

Read offset correction : 103
Overread into Lead-In and Lead-Out : No
Fill up missing offset samples with silence : Yes
Delete leading and trailing silent blocks : No
Null samples used in CRC calculations : Yes
Used interface : Native Win32 interface for Win NT & 2000
Gap handling : Appended to previous track

Used output format : User Defined Encoder
Selected bitrate : 1024 kBit/s
Quality : High
Add ID3 tag : No
Command line compressor : C:\Program Files (x86)\Exact Audio Copy\Flac\flac.exe
Additional command line options : -V -8 -T “Genre=%genre%” -T “Artist=%artist%” -T “Title=%title%” -T “Album=%albumtitle%” -T “Date=%year%” -T “Tracknumber=%tracknr%” -T “Comment=%comment%” %source%

TOC of the extracted CD

Track | Start | Length | Start sector | End sector
———————————————————
1 | 0:00.00 | 8:21.28 | 0 | 37602
2 | 8:21.28 | 4:55.02 | 37603 | 59729
3 | 13:16.30 | 5:00.00 | 59730 | 82229
4 | 18:16.30 | 10:08.00 | 82230 | 127829
5 | 28:24.30 | 5:03.15 | 127830 | 150569
6 | 33:27.45 | 6:50.38 | 150570 | 181357
7 | 40:18.08 | 5:24.22 | 181358 | 205679
8 | 45:42.30 | 4:44.33 | 205680 | 227012

Track 1

Filename E:\Razda4i\Marius Mueller-Westernhagen\Marius Mueller-Westernhagen flac\Live\Marius Mueller-Westernhagen – Keine Zeit [FLAC] {1996}\CD2\01 Mit 18.wav

Pre-gap length 0:00:02.00

Peak level 95.1 %
Extraction speed 2.8 X
Track quality 100.0 %
Test CRC 963A7CDC
Copy CRC 963A7CDC
Accurately ripped (confidence 48) [7398F306] (AR v2)
Copy OK

Track 2

Filename E:\Razda4i\Marius Mueller-Westernhagen\Marius Mueller-Westernhagen flac\Live\Marius Mueller-Westernhagen – Keine Zeit [FLAC] {1996}\CD2\02 Steh’ auf.wav

Pre-gap length 0:00:00.03

Peak level 95.1 %
Extraction speed 3.1 X
Track quality 100.0 %
Test CRC 052F3B1D
Copy CRC 052F3B1D
Accurately ripped (confidence 48) [B7B1135D] (AR v2)
Copy OK

Track 3

Filename E:\Razda4i\Marius Mueller-Westernhagen\Marius Mueller-Westernhagen flac\Live\Marius Mueller-Westernhagen – Keine Zeit [FLAC] {1996}\CD2\03 Rosi (Maenner sind so schwach).wav

Pre-gap length 0:00:00.02

Peak level 100.0 %
Extraction speed 3.3 X
Track quality 100.0 %
Test CRC 4D5AC117
Copy CRC 4D5AC117
Accurately ripped (confidence 48) [01AD1B60] (AR v2)
Copy OK

Track 4

Filename E:\Razda4i\Marius Mueller-Westernhagen\Marius Mueller-Westernhagen flac\Live\Marius Mueller-Westernhagen – Keine Zeit [FLAC] {1996}\CD2\04 Ich brauch ‘ne Frau.wav

Pre-gap length 0:00:00.02

Peak level 100.0 %
Extraction speed 3.9 X
Track quality 100.0 %
Test CRC 8208FDAE
Copy CRC 8208FDAE
Accurately ripped (confidence 48) [93657BA3] (AR v2)
Copy OK

Track 5

Filename E:\Razda4i\Marius Mueller-Westernhagen\Marius Mueller-Westernhagen flac\Live\Marius Mueller-Westernhagen – Keine Zeit [FLAC] {1996}\CD2\05 Sexy.wav

Pre-gap length 0:00:00.02

Peak level 95.1 %
Extraction speed 3.9 X
Track quality 100.0 %
Test CRC 44CFF57C
Copy CRC 44CFF57C
Accurately ripped (confidence 47) [6FF0A93B] (AR v2)
Copy OK

Track 6

Filename E:\Razda4i\Marius Mueller-Westernhagen\Marius Mueller-Westernhagen flac\Live\Marius Mueller-Westernhagen – Keine Zeit [FLAC] {1996}\CD2\06 Superstar.wav

Pre-gap length 0:00:00.02

Peak level 100.0 %
Extraction speed 4.3 X
Track quality 100.0 %
Test CRC 6E91C03A
Copy CRC 6E91C03A
Accurately ripped (confidence 47) [73F24061] (AR v2)
Copy OK

Track 7

Filename E:\Razda4i\Marius Mueller-Westernhagen\Marius Mueller-Westernhagen flac\Live\Marius Mueller-Westernhagen – Keine Zeit [FLAC] {1996}\CD2\07 Freiheit.wav

Pre-gap length 0:00:01.10

Peak level 90.2 %
Extraction speed 4.4 X
Track quality 100.0 %
Test CRC 986208D6
Copy CRC 986208D6
Accurately ripped (confidence 47) [D79786FE] (AR v2)
Copy OK

Track 8

Filename E:\Razda4i\Marius Mueller-Westernhagen\Marius Mueller-Westernhagen flac\Live\Marius Mueller-Westernhagen – Keine Zeit [FLAC] {1996}\CD2\08 Johnny Walker.wav

Pre-gap length 0:00:00.02

Peak level 90.2 %
Extraction speed 4.5 X
Track quality 100.0 %
Test CRC 22FCFEA1
Copy CRC 22FCFEA1
Accurately ripped (confidence 48) [AB389FD9] (AR v2)
Copy OK

All tracks accurately ripped

No errors occurred

End of status report

==== Log checksum 01B0AC1C903559D77B5787788ABAC030FF94156ED30CA56B66E2FC9C512F3313 ====

——————————————————

REM GENRE “Deutsch Rock/Pop”
REM DATE 1996
REM DISCID A40A880A
REM COMMENT “ExactAudioCopy v1.0b3”
PERFORMER “Marius Mueller-Westernhagen”
TITLE “Keine Zeit CD1”
FILE “01 Keine Zeit (Uebungsraum).wav” WAVE
TRACK 01 AUDIO
TITLE “Keine Zeit (Uebungsraum)”
PERFORMER “Marius Müller-Westernhagen”
INDEX 01 00:00:00
TRACK 02 AUDIO
TITLE “Schweigen ist feige (Uebungsraum)”
PERFORMER “Marius Müller-Westernhagen”
INDEX 00 04:53:50
FILE “02 Schweigen ist feige (Uebungsraum).wav” WAVE
INDEX 01 00:00:00
TRACK 03 AUDIO
TITLE “Mit Pfefferminz bin ich dein Prinz”
PERFORMER “Marius Müller-Westernhagen”
INDEX 00 03:39:52
FILE “03 Mit Pfefferminz bin ich dein Prinz.wav” WAVE
INDEX 01 00:00:00
TRACK 04 AUDIO
TITLE “Es geht mir gut”
PERFORMER “Marius Müller-Westernhagen”
INDEX 00 03:29:13
FILE “04 Es geht mir gut.wav” WAVE
INDEX 01 00:00:00
TRACK 05 AUDIO
TITLE “Fertig”
PERFORMER “Marius Müller-Westernhagen”
INDEX 00 03:59:63
FILE “05 Fertig.wav” WAVE
INDEX 01 00:00:00
TRACK 06 AUDIO
TITLE “Weil ich dich liebe”
PERFORMER “Marius Müller-Westernhagen”
INDEX 00 03:06:45
FILE “06 Weil ich dich liebe.wav” WAVE
INDEX 01 00:00:00
TRACK 07 AUDIO
TITLE “Willenlos”
PERFORMER “Marius Müller-Westernhagen”
INDEX 00 05:31:40
FILE “07 Willenlos.wav” WAVE
INDEX 01 00:00:00
TRACK 08 AUDIO
TITLE “Nur ein Traum”
PERFORMER “Marius Müller-Westernhagen”
INDEX 00 03:24:68
FILE “08 Nur ein Traum.wav” WAVE
INDEX 01 00:00:00
TRACK 09 AUDIO
TITLE “Krieg”
PERFORMER “Marius Müller-Westernhagen”
INDEX 00 04:15:18
FILE “09 Krieg.wav” WAVE
INDEX 01 00:00:00
TRACK 10 AUDIO
TITLE “Weisst du, dass ich gluecklich bin”
PERFORMER “Marius Müller-Westernhagen”
INDEX 00 05:49:73
FILE “10 Weisst du, dass ich gluecklich bin.wav” WAVE
INDEX 01 00:00:00

REM GENRE “Deutsch Rock”
REM DATE 1996
REM DISCID 660BD208
REM COMMENT “ExactAudioCopy v1.0b3”
PERFORMER “Marius Mueller-Westernhagen”
TITLE “Keine Zeit CD2”
FILE “01 Mit 18.wav” WAVE
TRACK 01 AUDIO
TITLE “Mit 18”
PERFORMER “Marius Müller-Westernhagen”
INDEX 01 00:00:00
TRACK 02 AUDIO
TITLE “Steh’ auf”
PERFORMER “Marius Müller-Westernhagen”
INDEX 00 08:21:25
FILE “02 Steh’ auf.wav” WAVE
INDEX 01 00:00:00
TRACK 03 AUDIO
TITLE “Rosi (Maenner sind so schwach)”
PERFORMER “Marius Müller-Westernhagen”
INDEX 00 04:55:00
FILE “03 Rosi (Maenner sind so schwach).wav” WAVE
INDEX 01 00:00:00
TRACK 04 AUDIO
TITLE “Ich brauch ‘ne Frau”
PERFORMER “Marius Müller-Westernhagen”
INDEX 00 04:59:73
FILE “04 Ich brauch ‘ne Frau.wav” WAVE
INDEX 01 00:00:00
TRACK 05 AUDIO
TITLE “Sexy”
PERFORMER “Marius Müller-Westernhagen”
INDEX 00 10:07:73
FILE “05 Sexy.wav” WAVE
INDEX 01 00:00:00
TRACK 06 AUDIO
TITLE “Superstar”
PERFORMER “Marius Müller-Westernhagen”
INDEX 00 05:03:13
FILE “06 Superstar.wav” WAVE
INDEX 01 00:00:00
TRACK 07 AUDIO
TITLE “Freiheit”
PERFORMER “Marius Müller-Westernhagen”
INDEX 00 06:49:28
FILE “07 Freiheit.wav” WAVE
INDEX 01 00:00:00
TRACK 08 AUDIO
TITLE “Johnny Walker”
PERFORMER “Marius Müller-Westernhagen”
INDEX 00 05:24:20
FILE “08 Johnny Walker.wav” WAVE
INDEX 01 00:00:00


Leave a Reply

Your email address will not be published. Required fields are marked *

This site uses Akismet to reduce spam. Learn how your comment data is processed.