Westernhagen – Jaja




Artist: Westernhagen
Year: 1992
Genre: Rock
Notes: Discogs
Add. Notes:
Encoder: FLAC
Bitrate: ~900 kBit/s (VBR)
Size: 381,97 MB
Password: “slam” (without ” “)


Tracklist:

1. Krieg - 3:53
2. Dreh' Dich nicht um - 6:23
3. Wir werden gleich sein - 3:36
4. Charlie - 4:10
5. Steh' auf - 4:30
6. Vater Unser	- 4:46
7. Komm' in meine Arme - 3:52
8. Rosi (Männer sind so schwach) - 4:37
9. Neger - 4:02
10. Du bist gemein - 5:53
11. Ich will es wissen - 3:25
12. Liebe - 4:06
13. Metropolis Blues - 3:12
14. Auf 'ner einsamen Insel - 3:08

EAC-Log, CUE-Sheed & NFO:

Click to open spoiler
Exact Audio Copy V1.0 beta 3 from 29. August 2011

EAC extraction logfile from 1. October 2014, 17:50

Marius Mueller-Westernhagen / Jaja

Used drive : MATSHITABD-MLT UJ260 Adapter: 0 ID: 1

Read mode : Secure
Utilize accurate stream : Yes
Defeat audio cache : Yes
Make use of C2 pointers : No

Read offset correction : 103
Overread into Lead-In and Lead-Out : No
Fill up missing offset samples with silence : Yes
Delete leading and trailing silent blocks : No
Null samples used in CRC calculations : Yes
Used interface : Native Win32 interface for Win NT & 2000
Gap handling : Appended to previous track

Used output format : User Defined Encoder
Selected bitrate : 1024 kBit/s
Quality : High
Add ID3 tag : No
Command line compressor : C:\Program Files (x86)\Exact Audio Copy\Flac\flac.exe
Additional command line options : -V -8 -T “Genre=%genre%” -T “Artist=%artist%” -T “Title=%title%” -T “Album=%albumtitle%” -T “Date=%year%” -T “Tracknumber=%tracknr%” -T “Comment=%comment%” %source%

TOC of the extracted CD

Track | Start | Length | Start sector | End sector
———————————————————
1 | 0:00.00 | 3:53.40 | 0 | 17514
2 | 3:53.40 | 6:23.70 | 17515 | 46309
3 | 10:17.35 | 3:36.02 | 46310 | 62511
4 | 13:53.37 | 4:10.13 | 62512 | 81274
5 | 18:03.50 | 4:30.55 | 81275 | 101579
6 | 22:34.30 | 4:46.65 | 101580 | 123094
7 | 27:21.20 | 3:52.42 | 123095 | 140536
8 | 31:13.62 | 4:37.53 | 140537 | 161364
9 | 35:51.40 | 4:02.47 | 161365 | 179561
10 | 39:54.12 | 5:53.18 | 179562 | 206054
11 | 45:47.30 | 3:25.07 | 206055 | 221436
12 | 49:12.37 | 4:06.38 | 221437 | 239924
13 | 53:19.00 | 3:12.60 | 239925 | 254384
14 | 56:31.60 | 3:07.65 | 254385 | 268474

Track 1

Filename E:\Razda4i\Marius Mueller-Westernhagen flac\Marius Mueller-Westernhagen flac\Albums\Marius Mueller-Westernhagen – Jaja [FLAC] {1992}\01 Krieg.wav

Pre-gap length 0:00:02.00

Peak level 100.0 %
Extraction speed 2.5 X
Track quality 100.0 %
Test CRC 7991F458
Copy CRC 7991F458
Accurately ripped (confidence 134) [6D9FA5AC] (AR v2)
Copy OK

Track 2

Filename E:\Razda4i\Marius Mueller-Westernhagen flac\Marius Mueller-Westernhagen flac\Albums\Marius Mueller-Westernhagen – Jaja [FLAC] {1992}\02 Dreh’ Dich nicht um.wav

Pre-gap length 0:00:00.03

Peak level 92.1 %
Extraction speed 3.0 X
Track quality 100.0 %
Test CRC D7DC0E55
Copy CRC D7DC0E55
Accurately ripped (confidence 133) [8A8FDFE3] (AR v2)
Copy OK

Track 3

Filename E:\Razda4i\Marius Mueller-Westernhagen flac\Marius Mueller-Westernhagen flac\Albums\Marius Mueller-Westernhagen – Jaja [FLAC] {1992}\03 Wir werden gleich sein.wav

Pre-gap length 0:00:01.13

Peak level 99.9 %
Extraction speed 3.0 X
Track quality 100.0 %
Test CRC 508D9AD8
Copy CRC 508D9AD8
Accurately ripped (confidence 134) [7A1B2E60] (AR v2)
Copy OK

Track 4

Filename E:\Razda4i\Marius Mueller-Westernhagen flac\Marius Mueller-Westernhagen flac\Albums\Marius Mueller-Westernhagen – Jaja [FLAC] {1992}\04 Charlie.wav

Pre-gap length 0:00:00.02

Peak level 81.8 %
Extraction speed 3.3 X
Track quality 100.0 %
Test CRC C3090E2B
Copy CRC C3090E2B
Accurately ripped (confidence 135) [81F32D3D] (AR v2)
Copy OK

Track 5

Filename E:\Razda4i\Marius Mueller-Westernhagen flac\Marius Mueller-Westernhagen flac\Albums\Marius Mueller-Westernhagen – Jaja [FLAC] {1992}\05 Steh’ auf.wav

Pre-gap length 0:00:02.25

Peak level 99.2 %
Extraction speed 3.5 X
Track quality 100.0 %
Test CRC 47195D3E
Copy CRC 47195D3E
Accurately ripped (confidence 134) [EDE055EA] (AR v2)
Copy OK

Track 6

Filename E:\Razda4i\Marius Mueller-Westernhagen flac\Marius Mueller-Westernhagen flac\Albums\Marius Mueller-Westernhagen – Jaja [FLAC] {1992}\06 Vater Unser.wav

Pre-gap length 0:00:01.25

Peak level 94.9 %
Extraction speed 3.7 X
Track quality 100.0 %
Test CRC 610A3C1A
Copy CRC 610A3C1A
Accurately ripped (confidence 135) [D2BF6CB9] (AR v2)
Copy OK

Track 7

Filename E:\Razda4i\Marius Mueller-Westernhagen flac\Marius Mueller-Westernhagen flac\Albums\Marius Mueller-Westernhagen – Jaja [FLAC] {1992}\07 Komm’ in meine Arme.wav

Pre-gap length 0:00:02.13

Peak level 57.4 %
Extraction speed 3.7 X
Track quality 100.0 %
Test CRC 48803F29
Copy CRC 48803F29
Accurately ripped (confidence 133) [43A8A369] (AR v2)
Copy OK

Track 8

Filename E:\Razda4i\Marius Mueller-Westernhagen flac\Marius Mueller-Westernhagen flac\Albums\Marius Mueller-Westernhagen – Jaja [FLAC] {1992}\08 Rosi (Maenner sind so schwach).wav

Pre-gap length 0:00:00.02

Peak level 97.7 %
Extraction speed 4.0 X
Track quality 100.0 %
Test CRC 492411D1
Copy CRC 492411D1
Accurately ripped (confidence 133) [A497F148] (AR v2)
Copy OK

Track 9

Filename E:\Razda4i\Marius Mueller-Westernhagen flac\Marius Mueller-Westernhagen flac\Albums\Marius Mueller-Westernhagen – Jaja [FLAC] {1992}\09 Neger.wav

Pre-gap length 0:00:00.03

Peak level 100.0 %
Extraction speed 4.1 X
Track quality 100.0 %
Test CRC CA6E8E39
Copy CRC CA6E8E39
Accurately ripped (confidence 133) [E29D2A90] (AR v2)
Copy OK

Track 10

Filename E:\Razda4i\Marius Mueller-Westernhagen flac\Marius Mueller-Westernhagen flac\Albums\Marius Mueller-Westernhagen – Jaja [FLAC] {1992}\10 Du bist gemein.wav

Pre-gap length 0:00:01.37

Peak level 95.4 %
Extraction speed 3.6 X
Track quality 99.9 %
Test CRC 5964065E
Copy CRC 5964065E
Accurately ripped (confidence 133) [B7889E89] (AR v2)
Copy OK

Track 11

Filename E:\Razda4i\Marius Mueller-Westernhagen flac\Marius Mueller-Westernhagen flac\Albums\Marius Mueller-Westernhagen – Jaja [FLAC] {1992}\11 Ich will es wissen.wav

Pre-gap length 0:00:01.00

Peak level 100.0 %
Extraction speed 4.3 X
Track quality 100.0 %
Test CRC 027CB21E
Copy CRC 027CB21E
Accurately ripped (confidence 128) [44A26362] (AR v2)
Copy OK

Track 12

Filename E:\Razda4i\Marius Mueller-Westernhagen flac\Marius Mueller-Westernhagen flac\Albums\Marius Mueller-Westernhagen – Jaja [FLAC] {1992}\12 Liebe.wav

Pre-gap length 0:00:00.02

Peak level 79.6 %
Extraction speed 0.3 X
Track quality 100.0 %
Test CRC 4842C4ED
Copy CRC 4842C4ED
Accurately ripped (confidence 131) [CF0D0001] (AR v2)
Copy OK

Track 13

Filename E:\Razda4i\Marius Mueller-Westernhagen flac\Marius Mueller-Westernhagen flac\Albums\Marius Mueller-Westernhagen – Jaja [FLAC] {1992}\13 Metropolis Blues.wav

Pre-gap length 0:00:01.35

Peak level 63.1 %
Extraction speed 4.4 X
Track quality 100.0 %
Test CRC E6FB4636
Copy CRC E6FB4636
Accurately ripped (confidence 133) [CBD7C90D] (AR v2)
Copy OK

Track 14

Filename E:\Razda4i\Marius Mueller-Westernhagen flac\Marius Mueller-Westernhagen flac\Albums\Marius Mueller-Westernhagen – Jaja [FLAC] {1992}\14 Auf ‘ner einsamen Insel.wav

Peak level 73.0 %
Extraction speed 4.5 X
Track quality 100.0 %
Test CRC 1E95C8F1
Copy CRC 1E95C8F1
Accurately ripped (confidence 132) [FA25842B] (AR v2)
Copy OK

All tracks accurately ripped

No errors occurred

End of status report

==== Log checksum 1FB778363AF54F5646EA68F4E63D2FA12F82B6D1487161E7F7071789B0CD521C ====

REM GENRE Rock
REM DATE 1992
REM DISCID CD0DFB0E
REM COMMENT “ExactAudioCopy v1.0b3”
PERFORMER “Marius Mueller-Westernhagen”
TITLE “Jaja”
FILE “01 Krieg.wav” WAVE
TRACK 01 AUDIO
TITLE “Krieg”
PERFORMER “Marius Müller-Westernhagen”
INDEX 01 00:00:00
TRACK 02 AUDIO
TITLE “Dreh’ Dich nicht um”
PERFORMER “Marius Müller-Westernhagen”
INDEX 00 03:53:37
FILE “02 Dreh’ Dich nicht um.wav” WAVE
INDEX 01 00:00:00
TRACK 03 AUDIO
TITLE “Wir werden gleich sein”
PERFORMER “Marius Müller-Westernhagen”
INDEX 00 06:22:57
FILE “03 Wir werden gleich sein.wav” WAVE
INDEX 01 00:00:00
TRACK 04 AUDIO
TITLE “Charlie”
PERFORMER “Marius Müller-Westernhagen”
INDEX 00 03:36:00
FILE “04 Charlie.wav” WAVE
INDEX 01 00:00:00
TRACK 05 AUDIO
TITLE “Steh’ auf”
PERFORMER “Marius Müller-Westernhagen”
INDEX 00 04:07:63
FILE “05 Steh’ auf.wav” WAVE
INDEX 01 00:00:00
TRACK 06 AUDIO
TITLE “Vater Unser”
PERFORMER “Marius Müller-Westernhagen”
INDEX 00 04:29:30
FILE “06 Vater Unser.wav” WAVE
INDEX 01 00:00:00
TRACK 07 AUDIO
TITLE “Komm’ in meine Arme”
PERFORMER “Marius Müller-Westernhagen”
INDEX 00 04:44:52
FILE “07 Komm’ in meine Arme.wav” WAVE
INDEX 01 00:00:00
TRACK 08 AUDIO
TITLE “Rosi (Maenner sind so schwach)”
PERFORMER “Marius Müller-Westernhagen”
INDEX 00 03:52:40
FILE “08 Rosi (Maenner sind so schwach).wav” WAVE
INDEX 01 00:00:00
TRACK 09 AUDIO
TITLE “Neger”
PERFORMER “Marius Müller-Westernhagen”
INDEX 00 04:37:50
FILE “09 Neger.wav” WAVE
INDEX 01 00:00:00
TRACK 10 AUDIO
TITLE “Du bist gemein”
PERFORMER “Marius Müller-Westernhagen”
INDEX 00 04:01:10
FILE “10 Du bist gemein.wav” WAVE
INDEX 01 00:00:00
TRACK 11 AUDIO
TITLE “Ich will es wissen”
PERFORMER “Marius Müller-Westernhagen”
INDEX 00 05:52:18
FILE “11 Ich will es wissen.wav” WAVE
INDEX 01 00:00:00
TRACK 12 AUDIO
TITLE “Liebe”
PERFORMER “Marius Müller-Westernhagen”
INDEX 00 03:25:05
FILE “12 Liebe.wav” WAVE
INDEX 01 00:00:00
TRACK 13 AUDIO
TITLE “Metropolis Blues”
PERFORMER “Marius Müller-Westernhagen”
INDEX 00 04:05:03
FILE “13 Metropolis Blues.wav” WAVE
INDEX 01 00:00:00
FILE “14 Auf ‘ner einsamen Insel.wav” WAVE
TRACK 14 AUDIO
TITLE “Auf ‘ner einsamen Insel”
PERFORMER “Marius Müller-Westernhagen”
INDEX 01 00:00:00

Leave a Reply

Your email address will not be published. Required fields are marked *

This site uses Akismet to reduce spam. Learn how your comment data is processed.