Westernhagen – Halleluja




Artist: Westernhagen
Year: 1989
Genre: Rock
Notes: Discogs
Add. Notes:
Encoder: FLAC
Bitrate: ~900 kBit/s (VBR)
Size: 289,52 MB
Password: “slam” (without ” “)


Tracklist:

1 - Sexy - 5:30
2 - Illusion - 3:08
3 - Weil Ich Dich Liebe - 4:47
4 - Fertig - 3:16
5 - Lieben Werd' Ich Dich Nie - 4:24
6 - Nur Ein Traum - 4:13
7 - Halleluja - 4:45
8 - Für 'Ne Bes're Welt - 2:52
9 - Der Chor Der Blöden - 8:13
10 - Engel - 3:40

EAC-Log, CUE-Sheed & NFO:

Click to open spoiler
Exact Audio Copy V1.0 beta 3 from 29. August 2011

EAC extraction logfile from 13. October 2014, 21:17

Marius Mueller-Westernhagen / Halleluja

Used drive : MATSHITABD-MLT UJ260 Adapter: 0 ID: 1

Read mode : Secure
Utilize accurate stream : Yes
Defeat audio cache : Yes
Make use of C2 pointers : No

Read offset correction : 103
Overread into Lead-In and Lead-Out : No
Fill up missing offset samples with silence : Yes
Delete leading and trailing silent blocks : No
Null samples used in CRC calculations : Yes
Used interface : Native Win32 interface for Win NT & 2000
Gap handling : Appended to previous track

Used output format : User Defined Encoder
Selected bitrate : 1024 kBit/s
Quality : High
Add ID3 tag : No
Command line compressor : C:\Program Files (x86)\Exact Audio Copy\Flac\flac.exe
Additional command line options : -V -8 -T “Genre=%genre%” -T “Artist=%artist%” -T “Title=%title%” -T “Album=%albumtitle%” -T “Date=%year%” -T “Tracknumber=%tracknr%” -T “Comment=%comment%” %source%

TOC of the extracted CD

Track | Start | Length | Start sector | End sector
———————————————————
1 | 0:00.00 | 5:34.67 | 0 | 25116
2 | 5:34.67 | 3:10.55 | 25117 | 39421
3 | 8:45.47 | 4:48.33 | 39422 | 61054
4 | 13:34.05 | 3:18.42 | 61055 | 75946
5 | 16:52.47 | 4:28.40 | 75947 | 96086
6 | 21:21.12 | 4:17.25 | 96087 | 115386
7 | 25:38.37 | 4:46.03 | 115387 | 136839
8 | 30:24.40 | 2:54.00 | 136840 | 149889
9 | 33:18.40 | 8:15.42 | 149890 | 187056
10 | 41:34.07 | 3:38.70 | 187057 | 203476

Track 1

Filename E:\Razda4i\Marius Mueller-Westernhagen\Marius Mueller-Westernhagen flac\Albums\Marius Mueller-Westernhagen – Halleluja [FLAC] {1989}\01 SeXy.wav

Pre-gap length 0:00:02.00

Peak level 99.7 %
Extraction speed 2.7 X
Track quality 100.0 %
Test CRC 583AACFE
Copy CRC 583AACFE
Accurately ripped (confidence 148) [0606C293] (AR v2)
Copy OK

Track 2

Filename E:\Razda4i\Marius Mueller-Westernhagen\Marius Mueller-Westernhagen flac\Albums\Marius Mueller-Westernhagen – Halleluja [FLAC] {1989}\02 Illusion.wav

Pre-gap length 0:00:01.42

Peak level 83.1 %
Extraction speed 2.7 X
Track quality 100.0 %
Test CRC E14B5219
Copy CRC E14B5219
Accurately ripped (confidence 148) [5E529CAF] (AR v2)
Copy OK

Track 3

Filename E:\Razda4i\Marius Mueller-Westernhagen\Marius Mueller-Westernhagen flac\Albums\Marius Mueller-Westernhagen – Halleluja [FLAC] {1989}\03 Weil ich dich liebe.wav

Pre-gap length 0:00:01.37

Peak level 88.8 %
Extraction speed 3.1 X
Track quality 100.0 %
Test CRC BB79917D
Copy CRC BB79917D
Accurately ripped (confidence 146) [43126DCC] (AR v2)
Copy OK

Track 4

Filename E:\Razda4i\Marius Mueller-Westernhagen\Marius Mueller-Westernhagen flac\Albums\Marius Mueller-Westernhagen – Halleluja [FLAC] {1989}\04 Fertig.wav

Pre-gap length 0:00:01.50

Peak level 86.9 %
Extraction speed 2.3 X
Track quality 99.9 %
Test CRC F2875F60
Copy CRC F2875F60
Accurately ripped (confidence 146) [4EB8CD8B] (AR v2)
Copy OK

Track 5

Filename E:\Razda4i\Marius Mueller-Westernhagen\Marius Mueller-Westernhagen flac\Albums\Marius Mueller-Westernhagen – Halleluja [FLAC] {1989}\05 Lieben werd’ ich dich nie.wav

Pre-gap length 0:00:01.60

Peak level 88.0 %
Extraction speed 3.4 X
Track quality 100.0 %
Test CRC 9D9CC6F3
Copy CRC 9D9CC6F3
Accurately ripped (confidence 145) [9ACC3649] (AR v2)
Copy OK

Track 6

Filename E:\Razda4i\Marius Mueller-Westernhagen\Marius Mueller-Westernhagen flac\Albums\Marius Mueller-Westernhagen – Halleluja [FLAC] {1989}\06 Nur ein Traum.wav

Pre-gap length 0:00:02.65

Peak level 94.2 %
Extraction speed 3.6 X
Track quality 100.0 %
Test CRC 8DFA177E
Copy CRC 8DFA177E
Accurately ripped (confidence 145) [FF413C0D] (AR v2)
Copy OK

Track 7

Filename E:\Razda4i\Marius Mueller-Westernhagen\Marius Mueller-Westernhagen flac\Albums\Marius Mueller-Westernhagen – Halleluja [FLAC] {1989}\07 Halleluja.wav

Pre-gap length 0:00:02.40

Peak level 82.1 %
Extraction speed 3.8 X
Track quality 100.0 %
Test CRC D465B288
Copy CRC D465B288
Accurately ripped (confidence 143) [BE0FC24E] (AR v2)
Copy OK

Track 8

Filename E:\Razda4i\Marius Mueller-Westernhagen\Marius Mueller-Westernhagen flac\Albums\Marius Mueller-Westernhagen – Halleluja [FLAC] {1989}\08 Fuer ‘ne bess’re Welt.wav

Pre-gap length 0:00:01.48

Peak level 78.7 %
Extraction speed 3.7 X
Track quality 100.0 %
Test CRC 27683BB2
Copy CRC 27683BB2
Accurately ripped (confidence 145) [E3EC62B5] (AR v2)
Copy OK

Track 9

Filename E:\Razda4i\Marius Mueller-Westernhagen\Marius Mueller-Westernhagen flac\Albums\Marius Mueller-Westernhagen – Halleluja [FLAC] {1989}\09 Der Chor der Bloeden.wav

Pre-gap length 0:00:00.73

Peak level 87.7 %
Extraction speed 4.4 X
Track quality 100.0 %
Test CRC E9BC4E11
Copy CRC E9BC4E11
Accurately ripped (confidence 144) [09E2261B] (AR v2)
Copy OK

Track 10

Filename E:\Razda4i\Marius Mueller-Westernhagen\Marius Mueller-Westernhagen flac\Albums\Marius Mueller-Westernhagen – Halleluja [FLAC] {1989}\10 Engel.wav

Pre-gap length 0:00:03.52

Peak level 68.9 %
Extraction speed 4.2 X
Track quality 100.0 %
Test CRC 993631E1
Copy CRC 993631E1
Accurately ripped (confidence 147) [C75F88E5] (AR v2)
Copy OK

All tracks accurately ripped

No errors occurred

End of status report

==== Log checksum 87FEC3D6B730C961139BAB0C06CA2A95D26F23B9DE424C95638AFADAE7A15F53 ====

^

REM GENRE “Rock / Pop”
REM DATE 1989
REM DISCID 710A990A
REM COMMENT “ExactAudioCopy v1.0b3”
PERFORMER “Marius Mueller-Westernhagen”
TITLE “Halleluja”
FILE “01 SeXy.wav” WAVE
TRACK 01 AUDIO
TITLE “SeXy”
PERFORMER “Marius Müller-Westernhagen”
INDEX 01 00:00:00
TRACK 02 AUDIO
TITLE “Illusion”
PERFORMER “Marius Müller-Westernhagen”
INDEX 00 05:33:25
FILE “02 Illusion.wav” WAVE
INDEX 01 00:00:00
TRACK 03 AUDIO
TITLE “Weil ich dich liebe”
PERFORMER “Marius Müller-Westernhagen”
INDEX 00 03:09:18
FILE “03 Weil ich dich liebe.wav” WAVE
INDEX 01 00:00:00
TRACK 04 AUDIO
TITLE “Fertig”
PERFORMER “Marius Müller-Westernhagen”
INDEX 00 04:46:58
FILE “04 Fertig.wav” WAVE
INDEX 01 00:00:00
TRACK 05 AUDIO
TITLE “Lieben werd’ ich dich nie”
PERFORMER “Marius Müller-Westernhagen”
INDEX 00 03:16:57
FILE “05 Lieben werd’ ich dich nie.wav” WAVE
INDEX 01 00:00:00
TRACK 06 AUDIO
TITLE “Nur ein Traum”
PERFORMER “Marius Müller-Westernhagen”
INDEX 00 04:25:50
FILE “06 Nur ein Traum.wav” WAVE
INDEX 01 00:00:00
TRACK 07 AUDIO
TITLE “Halleluja”
PERFORMER “Marius Müller-Westernhagen”
INDEX 00 04:14:60
FILE “07 Halleluja.wav” WAVE
INDEX 01 00:00:00
TRACK 08 AUDIO
TITLE “Fuer ‘ne bess’re Welt”
PERFORMER “Marius Müller-Westernhagen”
INDEX 00 04:44:30
FILE “08 Fuer ‘ne bess’re Welt.wav” WAVE
INDEX 01 00:00:00
TRACK 09 AUDIO
TITLE “Der Chor der Bloeden”
PERFORMER “Marius Müller-Westernhagen”
INDEX 00 02:53:02
FILE “09 Der Chor der Bloeden.wav” WAVE
INDEX 01 00:00:00
TRACK 10 AUDIO
TITLE “Engel”
PERFORMER “Marius Müller-Westernhagen”
INDEX 00 08:11:65
FILE “10 Engel.wav” WAVE
INDEX 01 00:00:00

Leave a Reply

Your email address will not be published. Required fields are marked *

Enter the text from the image below
 

This site uses Akismet to reduce spam. Learn how your comment data is processed.