Weezer – Blue Album




Artist: Weezer
Year: 1994
Genre: Rock
Notes: Discogs
Add. Notes:
Cover incl.: Yes
Encoder: FLAC
Bitrate: ~1000 kBit/s (44.1 kHz/16 Bit/s)
Log & Cue incl.: Yes
Size: 289 MB
Password: “slam” (without ” “)


All Downloads/Hosters are compatible

Download 1
KatFile.com
Turbobit.net
FileFactory.com
Rapidgator.net
Download 2
KatFile.com
Turbobit.net
FileFactory.com
Rapidgator.net

Tracklist:

1 - My Name Is Jonas - 3:23
2 - No One Else - 3:14
3 - The World Has Turned And Left 
Me Here - 4:26
4 - Buddy Holly - 2:40
5 - Undone - The Sweater Song - 
4:55
6 - Surf Wax America - 3:04
7 - Say It Ain't So - 4:18
8 - In The Garage - 3:56
9 - Holiday - 3:26
10 - Only In Dreams - 8:03

EAC-Log, CUE-Sheed & NFO:

Click to open spoiler
Exact Audio Copy V0.99 prebeta 4 from 23. January 2008

EAC extraction logfile from 19. October 2011, 18:12

Weezer / Weezer (Blue Album)

Used drive : Optiarc DVD RW AD-7200A Adapter: 0 ID: 0

Read mode : Secure
Utilize accurate stream : Yes
Defeat audio cache : Yes
Make use of C2 pointers : No

Read offset correction : 48
Overread into Lead-In and Lead-Out : No
Fill up missing offset samples with silence : Yes
Delete leading and trailing silent blocks : No
Null samples used in CRC calculations : Yes
Used interface : Installed external ASPI interface
Gap handling : Appended to previous track

Used output format : Internal WAV Routines
Sample format : 44.100 Hz; 16 Bit; Stereo

TOC of the extracted CD

Track | Start | Length | Start sector | End sector
———————————————————
1 | 0:00.00 | 3:24.48 | 0 | 15347
2 | 3:24.48 | 3:04.47 | 15348 | 29194
3 | 6:29.20 | 4:19.23 | 29195 | 48642
4 | 10:48.43 | 2:39.27 | 48643 | 60594
5 | 13:27.70 | 5:05.33 | 60595 | 83502
6 | 18:33.28 | 3:06.37 | 83503 | 97489
7 | 21:39.65 | 4:18.60 | 97490 | 116899
8 | 25:58.50 | 3:55.58 | 116900 | 134582
9 | 29:54.33 | 3:24.65 | 134583 | 149947
10 | 33:19.23 | 7:59.20 | 149948 | 185892

Track 1

Filename D:\Weezer (Blue Album)\01. Weezer – My Name is Jonas.wav

Pre-gap length 0:00:02.00

Peak level 100.0 %
Track quality 100.0 %
Test CRC 0963FC01
Copy CRC 0963FC01
Accurately ripped (confidence 140) [95460CCC]
Copy OK

Track 2

Filename D:\Weezer (Blue Album)\02. Weezer – No One Else.wav

Pre-gap length 0:00:00.36

Peak level 100.0 %
Track quality 99.9 %
Test CRC DCD51F50
Copy CRC DCD51F50
Accurately ripped (confidence 138) [9002C806]
Copy OK

Track 3

Filename D:\Weezer (Blue Album)\03. Weezer – The World Has Turned and Left Me Here.wav

Pre-gap length 0:00:00.02

Peak level 100.0 %
Track quality 99.9 %
Test CRC 4EDBF449
Copy CRC 4EDBF449
Accurately ripped (confidence 140) [46A1D6F0]
Copy OK

Track 4

Filename D:\Weezer (Blue Album)\04. Weezer – Buddy Holly.wav

Pre-gap length 0:00:00.46

Peak level 100.0 %
Track quality 100.0 %
Test CRC 76C7434C
Copy CRC 76C7434C
Accurately ripped (confidence 142) [303F1724]
Copy OK

Track 5

Filename D:\Weezer (Blue Album)\05. Weezer – Undone – The Sweater Song.wav

Pre-gap length 0:00:00.02

Peak level 100.0 %
Track quality 99.9 %
Test CRC DC1FFCEF
Copy CRC DC1FFCEF
Accurately ripped (confidence 141) [8650B57E]
Copy OK

Track 6

Filename D:\Weezer (Blue Album)\06. Weezer – Surf Wax America.wav

Pre-gap length 0:00:01.02

Peak level 100.0 %
Track quality 100.0 %
Test CRC 4455868C
Copy CRC 4455868C
Accurately ripped (confidence 141) [4FEC2F3B]
Copy OK

Track 7

Filename D:\Weezer (Blue Album)\07. Weezer – Say It Ain’t So.wav

Pre-gap length 0:00:00.16

Peak level 100.0 %
Track quality 100.0 %
Test CRC E662247C
Copy CRC E662247C
Accurately ripped (confidence 139) [3FF9645F]
Copy OK

Track 8

Filename D:\Weezer (Blue Album)\08. Weezer – In the Garage.wav

Pre-gap length 0:00:01.02

Peak level 100.0 %
Track quality 99.9 %
Test CRC F46FC01C
Copy CRC F46FC01C
Accurately ripped (confidence 141) [746185E7]
Copy OK

Track 9

Filename D:\Weezer (Blue Album)\09. Weezer – Holiday.wav

Pre-gap length 0:00:00.42

Peak level 100.0 %
Track quality 99.9 %
Test CRC 6BFE4E09
Copy CRC 6BFE4E09
Accurately ripped (confidence 138) [B646BD14]
Copy OK

Track 10

Filename D:\Weezer (Blue Album)\10. Weezer – Only in Dreams.wav

Pre-gap length 0:00:00.82

Peak level 100.0 %
Track quality 100.0 %
Test CRC BFE9AB41
Copy CRC BFE9AB41
Accurately ripped (confidence 133) [E6692D59]
Copy OK

All tracks accurately ripped

No errors occurred

End of status report

REM GENRE “Alternative Rock”
REM DATE 1994
REM DISCID 6609AE0A
REM COMMENT “ExactAudioCopy v0.99pb4”
PERFORMER “Weezer”
TITLE “Weezer (Blue Album)”
FILE “01. Weezer – My Name is Jonas.wav” WAVE
TRACK 01 AUDIO
TITLE “My Name is Jonas”
PERFORMER “Weezer”
INDEX 01 00:00:00
TRACK 02 AUDIO
TITLE “No One Else”
PERFORMER “Weezer”
INDEX 00 03:24:21
FILE “02. Weezer – No One Else.wav” WAVE
INDEX 01 00:00:00
TRACK 03 AUDIO
TITLE “The World Has Turned and Left Me Here”
PERFORMER “Weezer”
INDEX 00 03:04:45
FILE “03. Weezer – The World Has Turned and Left Me Here.wav” WAVE
INDEX 01 00:00:00
TRACK 04 AUDIO
TITLE “Buddy Holly”
PERFORMER “Weezer”
INDEX 00 04:18:63
FILE “04. Weezer – Buddy Holly.wav” WAVE
INDEX 01 00:00:00
TRACK 05 AUDIO
TITLE “Undone – The Sweater Song”
PERFORMER “Weezer”
INDEX 00 02:39:25
FILE “05. Weezer – Undone – The Sweater Song.wav” WAVE
INDEX 01 00:00:00
TRACK 06 AUDIO
TITLE “Surf Wax America”
PERFORMER “Weezer”
INDEX 00 05:04:31
FILE “06. Weezer – Surf Wax America.wav” WAVE
INDEX 01 00:00:00
TRACK 07 AUDIO
TITLE “Say It Ain’t So”
PERFORMER “Weezer”
INDEX 00 03:06:25
FILE “07. Weezer – Say It Ain’t So.wav” WAVE
INDEX 01 00:00:00
TRACK 08 AUDIO
TITLE “In the Garage”
PERFORMER “Weezer”
INDEX 00 04:17:58
FILE “08. Weezer – In the Garage.wav” WAVE
INDEX 01 00:00:00
TRACK 09 AUDIO
TITLE “Holiday”
PERFORMER “Weezer”
INDEX 00 03:55:26
FILE “09. Weezer – Holiday.wav” WAVE
INDEX 01 00:00:00
TRACK 10 AUDIO
TITLE “Only in Dreams”
PERFORMER “Weezer”
INDEX 00 03:24:03
FILE “10. Weezer – Only in Dreams.wav” WAVE
INDEX 01 00:00:00


Leave a Reply

Your email address will not be published. Required fields are marked *

This site uses Akismet to reduce spam. Learn how your comment data is processed.