Weezer – Blue Album (Remastered Deluxe Edition)




Artist: Weezer
Year: 1994/2004
Genre: Rock
Notes: Discogs
Add. Notes: Remastered Deluxe Edition
Cover incl.: Yes
Encoder: FLAC
Bitrate: ~1000 kBit/s (44.1 kHz/16 Bit/s)
Log & Cue incl.: Yes
Size: 640,5 MB
Password: “slam” (without ” “)


All Downloads/Hosters are compatible

Download 1
KatFile.com
Turbobit.net
FileFactory.com
Rapidgator.net
Download 2
KatFile.com
Turbobit.net
FileFactory.com
Rapidgator.net

Tracklist:

Weezer
1-1 - My Name Is Jonas - 3:24
1-2 - No One Else - 3:05
1-3 - The World Has Turned And Left Me Here - 4:18
1-4 - Buddy Holly - 2:39
1-5 - Undone - The Sweater Song - 5:05
1-6 - Surf Wax America - 3:06
1-7 - Say It Ain't So - 4:18
1-8 - In The Garage - 3:56
1-9 - Holiday - 3:24
1-10 - Only In Dreams - 7:59
Dusty Gems And Raw Nuggets
2-1 - Mykel And Carli (B-Side) - 2:53
2-2 - Susanne (B-Side) - 2:47
2-3 - My Evaline (B-Side) - 0:44
2-4 - Jamie (Originally Appeared On DGC Rarities) - 4:19
2-5 - My Name Is Jonas (Live B-Side) - 3:39
2-6 - Surf Wax America (Live B-Side) - 4:01
2-7 - Jamie (Live Acoustic B-Side) - 4:03
2-8 - No One Else (Live Acoustic B-Side) - 3:26
2-9 - Undone - The Sweater Song (Previously Unreleased 
Kitchen Tapes) - 5:33
2-10 - Paperface (Previously Unreleased Kitchen Tapes) - 
3:01
2-11 - Only In Dreams (Previously Unreleased Kitchen 
Tapes) - 5:47
2-12 - Lullaby For Wayne (Previously Unreleased Pre-
Production Recording) - 3:36
2-13 - I Swear It's True (Previously Unreleased Pre-
Production Recording) - 2:57
2-14 - Say It Ain't So (Original Album Mix) - 4:16

EAC-Log, CUE-Sheed & NFO:

Click to open spoiler
Exact Audio Copy V0.99 prebeta 4 from 23. January 2008

EAC extraction logfile from 31. March 2009, 13:47

Weezer / Weezer (Blue Album Deluxe Edition) (Disc 1)

Used drive : SAMSUNG CD-ROM SC-148A Adapter: 2 ID: 1

Read mode : Secure
Utilize accurate stream : Yes
Defeat audio cache : Yes
Make use of C2 pointers : No

Read offset correction : 12
Overread into Lead-In and Lead-Out : No
Fill up missing offset samples with silence : Yes
Delete leading and trailing silent blocks : No
Null samples used in CRC calculations : Yes
Used interface : Installed external ASPI interface
Gap handling : Appended to previous track

Used output format : User Defined Encoder
Selected bitrate : 192 kBit/s
Quality : High
Add ID3 tag : No
Command line compressor : C:\Program Files\Exact Audio Copy\Flac\flac.exe
Additional command line options : -V -8 -T “artist=%a” -T “title=%t” -T “album=%g” -T “date=%y” -T “tracknumber=%n” -T “genre=%m” %s

TOC of the extracted CD

Track | Start | Length | Start sector | End sector
———————————————————
1 | 0:00.00 | 3:23.72 | 0 | 15296
2 | 3:23.72 | 3:05.12 | 15297 | 29183
3 | 6:29.09 | 4:18.28 | 29184 | 48561
4 | 10:47.37 | 2:39.44 | 48562 | 60530
5 | 13:27.06 | 5:04.74 | 60531 | 83404
6 | 18:32.05 | 3:06.16 | 83405 | 97370
7 | 21:38.21 | 4:18.64 | 97371 | 116784
8 | 25:57.10 | 3:55.73 | 116785 | 134482
9 | 29:53.08 | 3:24.68 | 134483 | 149850
10 | 33:18.01 | 7:59.27 | 149851 | 185802

Track 1

Filename C:\Documents and Settings\Owner\Desktop\Weezer (Blue Album Deluxe Edition) (Disc 1)\01 – My Name Is Jonas.wav

Pre-gap length 0:00:02.00

Peak level 100.0 %
Track quality 100.0 %
Test CRC 0D3358E6
Copy CRC 0D3358E6
Accurately ripped (confidence 56) [0E9E23D6]
Copy OK

Track 2

Filename C:\Documents and Settings\Owner\Desktop\Weezer (Blue Album Deluxe Edition) (Disc 1)\02 – No One Else.wav

Peak level 100.0 %
Track quality 99.2 %
Test CRC F3F01D71
Copy CRC F3F01D71
Accurately ripped (confidence 57) [9C02F2FB]
Copy OK

Track 3

Filename C:\Documents and Settings\Owner\Desktop\Weezer (Blue Album Deluxe Edition) (Disc 1)\03 – The World Has Turned And Left Me Here.wav

Peak level 100.0 %
Track quality 99.9 %
Test CRC 46CC6F88
Copy CRC 46CC6F88
Accurately ripped (confidence 56) [F89486A0]
Copy OK

Track 4

Filename C:\Documents and Settings\Owner\Desktop\Weezer (Blue Album Deluxe Edition) (Disc 1)\04 – Buddy Holly.wav

Peak level 100.0 %
Track quality 100.0 %
Test CRC 7E19E8E4
Copy CRC 7E19E8E4
Accurately ripped (confidence 59) [A1037EA1]
Copy OK

Track 5

Filename C:\Documents and Settings\Owner\Desktop\Weezer (Blue Album Deluxe Edition) (Disc 1)\05 – Undone – The Sweater Song.wav

Peak level 100.0 %
Track quality 100.0 %
Test CRC 747CFB0E
Copy CRC 747CFB0E
Accurately ripped (confidence 57) [B8EBF1F1]
Copy OK

Track 6

Filename C:\Documents and Settings\Owner\Desktop\Weezer (Blue Album Deluxe Edition) (Disc 1)\06 – Surf Wax America.wav

Peak level 100.0 %
Track quality 100.0 %
Test CRC 187C5C87
Copy CRC 187C5C87
Accurately ripped (confidence 56) [7F0210BE]
Copy OK

Track 7

Filename C:\Documents and Settings\Owner\Desktop\Weezer (Blue Album Deluxe Edition) (Disc 1)\07 – Say It Ain’t So.wav

Peak level 100.0 %
Track quality 100.0 %
Test CRC B989443C
Copy CRC B989443C
Accurately ripped (confidence 56) [A77D0504]
Copy OK

Track 8

Filename C:\Documents and Settings\Owner\Desktop\Weezer (Blue Album Deluxe Edition) (Disc 1)\08 – In The Garage.wav

Peak level 100.0 %
Track quality 99.8 %
Test CRC 14E83C6A
Copy CRC 14E83C6A
Accurately ripped (confidence 56) [FC5B228C]
Copy OK

Track 9

Filename C:\Documents and Settings\Owner\Desktop\Weezer (Blue Album Deluxe Edition) (Disc 1)\09 – Holiday.wav

Peak level 100.0 %
Track quality 99.8 %
Test CRC 5C984BDD
Copy CRC 5C984BDD
Accurately ripped (confidence 57) [5E4BBDB5]
Copy OK

Track 10

Filename C:\Documents and Settings\Owner\Desktop\Weezer (Blue Album Deluxe Edition) (Disc 1)\10 – Only In Dreams.wav

Peak level 100.0 %
Track quality 100.0 %
Test CRC 40270D64
Copy CRC 40270D64
Accurately ripped (confidence 53) [7414B457]
Copy OK

All tracks accurately ripped

No errors occurred

End of status report

Exact Audio Copy V0.99 prebeta 4 from 23. January 2008

EAC extraction logfile from 31. March 2009, 14:41

Weezer / Weezer (Blue Album Deluxe Edition) (Disc 2)

Used drive : SAMSUNG CD-ROM SC-148A Adapter: 2 ID: 1

Read mode : Secure
Utilize accurate stream : Yes
Defeat audio cache : Yes
Make use of C2 pointers : No

Read offset correction : 12
Overread into Lead-In and Lead-Out : No
Fill up missing offset samples with silence : Yes
Delete leading and trailing silent blocks : No
Null samples used in CRC calculations : Yes
Used interface : Installed external ASPI interface
Gap handling : Appended to previous track

Used output format : User Defined Encoder
Selected bitrate : 192 kBit/s
Quality : High
Add ID3 tag : No
Command line compressor : C:\Program Files\Exact Audio Copy\Flac\flac.exe
Additional command line options : -V -8 -T “artist=%a” -T “title=%t” -T “album=%g” -T “date=%y” -T “tracknumber=%n” -T “genre=%m” %s

TOC of the extracted CD

Track | Start | Length | Start sector | End sector
———————————————————
1 | 0:00.00 | 2:53.38 | 0 | 13012
2 | 2:53.38 | 2:47.32 | 13013 | 25569
3 | 5:40.70 | 0:44.17 | 25570 | 28886
4 | 6:25.12 | 4:19.51 | 28887 | 48362
5 | 10:44.63 | 3:39.68 | 48363 | 64855
6 | 14:24.56 | 4:01.63 | 64856 | 82993
7 | 18:26.44 | 4:03.67 | 82994 | 101285
8 | 22:30.36 | 3:26.53 | 101286 | 116788
9 | 25:57.14 | 5:33.51 | 116789 | 141814
10 | 31:30.65 | 3:01.64 | 141815 | 155453
11 | 34:32.54 | 5:47.52 | 155454 | 181530
12 | 40:20.31 | 3:36.11 | 181531 | 197741
13 | 43:56.42 | 2:57.11 | 197742 | 211027
14 | 46:53.53 | 4:16.66 | 211028 | 230293

Track 1

Filename C:\Documents and Settings\Owner\Desktop\Weezer (Blue Album Deluxe Edition) (Disc 2)\01 – Mykel and Carli (B-Side).wav

Pre-gap length 0:00:02.00

Peak level 100.0 %
Track quality 99.9 %
Test CRC 35FB2BFE
Copy CRC 35FB2BFE
Accurately ripped (confidence 64) [6D0EA181]
Copy OK

Track 2

Filename C:\Documents and Settings\Owner\Desktop\Weezer (Blue Album Deluxe Edition) (Disc 2)\02 – Susanne (B-Side).wav

Peak level 100.0 %
Track quality 100.0 %
Test CRC D85DEA67
Copy CRC D85DEA67
Accurately ripped (confidence 64) [6D5359A6]
Copy OK

Track 3

Filename C:\Documents and Settings\Owner\Desktop\Weezer (Blue Album Deluxe Edition) (Disc 2)\03 – My Evaline (B-Side).wav

Peak level 100.0 %
Track quality 100.0 %
Test CRC 95F3CEE3
Copy CRC 95F3CEE3
Accurately ripped (confidence 63) [87902D3E]
Copy OK

Track 4

Filename C:\Documents and Settings\Owner\Desktop\Weezer (Blue Album Deluxe Edition) (Disc 2)\04 – Jamie (Originally Appeared On DGC Rarities).wav

Peak level 100.0 %
Track quality 99.9 %
Test CRC C7DA4856
Copy CRC C7DA4856
Accurately ripped (confidence 62) [020066C7]
Copy OK

Track 5

Filename C:\Documents and Settings\Owner\Desktop\Weezer (Blue Album Deluxe Edition) (Disc 2)\05 – My Name Is Jonas (Live B-Side).wav

Peak level 100.0 %
Track quality 100.0 %
Test CRC A2696538
Copy CRC A2696538
Accurately ripped (confidence 63) [75877A6A]
Copy OK

Track 6

Filename C:\Documents and Settings\Owner\Desktop\Weezer (Blue Album Deluxe Edition) (Disc 2)\06 – Surf Wax America (Live B-Side).wav

Peak level 100.0 %
Track quality 100.0 %
Test CRC 0AC34A2E
Copy CRC 0AC34A2E
Accurately ripped (confidence 62) [FAB22F19]
Copy OK

Track 7

Filename C:\Documents and Settings\Owner\Desktop\Weezer (Blue Album Deluxe Edition) (Disc 2)\07 – Jamie (Live Acoustic B-Side).wav

Peak level 100.0 %
Track quality 100.0 %
Test CRC 693A4EB9
Copy CRC 693A4EB9
Accurately ripped (confidence 61) [62019003]
Copy OK

Track 8

Filename C:\Documents and Settings\Owner\Desktop\Weezer (Blue Album Deluxe Edition) (Disc 2)\08 – No One Else (Live Acoustic B-Side).wav

Peak level 100.0 %
Track quality 99.6 %
Test CRC AB5FEF9C
Copy CRC AB5FEF9C
Accurately ripped (confidence 61) [CCDF788D]
Copy OK

Track 9

Filename C:\Documents and Settings\Owner\Desktop\Weezer (Blue Album Deluxe Edition) (Disc 2)\09 – Undone – The Sweater Song (Previously Unreleased Kitchen Tapes).wav

Peak level 100.0 %
Track quality 99.7 %
Test CRC 3A09430C
Copy CRC 3A09430C
Accurately ripped (confidence 61) [26EBD70B]
Copy OK

Track 10

Filename C:\Documents and Settings\Owner\Desktop\Weezer (Blue Album Deluxe Edition) (Disc 2)\10 – Paperface (Previously Unreleased Kitchen Tapes).wav

Peak level 100.0 %
Track quality 100.0 %
Test CRC DE7120D1
Copy CRC DE7120D1
Accurately ripped (confidence 61) [51553088]
Copy OK

Track 11

Filename C:\Documents and Settings\Owner\Desktop\Weezer (Blue Album Deluxe Edition) (Disc 2)\11 – Only In Dreams (Previously Unreleased Kitchen Tapes).wav

Peak level 100.0 %
Track quality 99.9 %
Test CRC D8E95CAA
Copy CRC D8E95CAA
Accurately ripped (confidence 60) [5C0BE1A1]
Copy OK

Track 12

Filename C:\Documents and Settings\Owner\Desktop\Weezer (Blue Album Deluxe Edition) (Disc 2)\12 – Lullaby For Wayne (Previously Unreleased Pre-Production Recording).wav

Peak level 100.0 %
Track quality 100.0 %
Test CRC 2892B9A5
Copy CRC 2892B9A5
Accurately ripped (confidence 60) [A7A03F39]
Copy OK

Track 13

Filename C:\Documents and Settings\Owner\Desktop\Weezer (Blue Album Deluxe Edition) (Disc 2)\13 – I Swear It’s True (Previously Unreleased Pre-Production Recording).wav

Peak level 100.0 %
Track quality 100.0 %
Test CRC E811FE2C
Copy CRC E811FE2C
Accurately ripped (confidence 61) [2E413498]
Copy OK

Track 14

Filename C:\Documents and Settings\Owner\Desktop\Weezer (Blue Album Deluxe Edition) (Disc 2)\14 – Say It Ain’t So (Original Album Mix).wav

Peak level 100.0 %
Track quality 100.0 %
Test CRC 61479AA4
Copy CRC 61479AA4
Accurately ripped (confidence 59) [67D13345]
Copy OK

All tracks accurately ripped

No errors occurred

End of status report

REM DATE 2004
REM DISCID 7109AD0A
REM COMMENT “ExactAudioCopy v0.99pb4”
PERFORMER “Weezer”
TITLE “Weezer (Blue Album Deluxe Edition) (Disc 1)”
FILE “01 – My Name Is Jonas.wav” WAVE
TRACK 01 AUDIO
TITLE “My Name Is Jonas”
PERFORMER “Weezer”
INDEX 01 00:00:00
FILE “02 – No One Else.wav” WAVE
TRACK 02 AUDIO
TITLE “No One Else”
PERFORMER “Weezer”
INDEX 01 00:00:00
FILE “03 – The World Has Turned And Left Me Here.wav” WAVE
TRACK 03 AUDIO
TITLE “The World Has Turned And Left Me Here”
PERFORMER “Weezer”
INDEX 01 00:00:00
FILE “04 – Buddy Holly.wav” WAVE
TRACK 04 AUDIO
TITLE “Buddy Holly”
PERFORMER “Weezer”
INDEX 01 00:00:00
FILE “05 – Undone – The Sweater Song.wav” WAVE
TRACK 05 AUDIO
TITLE “Undone – The Sweater Song”
PERFORMER “Weezer”
INDEX 01 00:00:00
FILE “06 – Surf Wax America.wav” WAVE
TRACK 06 AUDIO
TITLE “Surf Wax America”
PERFORMER “Weezer”
INDEX 01 00:00:00
FILE “07 – Say It Ain’t So.wav” WAVE
TRACK 07 AUDIO
TITLE “Say It Ain’t So”
PERFORMER “Weezer”
INDEX 01 00:00:00
FILE “08 – In The Garage.wav” WAVE
TRACK 08 AUDIO
TITLE “In The Garage”
PERFORMER “Weezer”
INDEX 01 00:00:00
FILE “09 – Holiday.wav” WAVE
TRACK 09 AUDIO
TITLE “Holiday”
PERFORMER “Weezer”
INDEX 01 00:00:00
FILE “10 – Only In Dreams.wav” WAVE
TRACK 10 AUDIO
TITLE “Only In Dreams”
PERFORMER “Weezer”
INDEX 01 00:00:00

REM DATE 2004
REM DISCID C50BFE0E
REM COMMENT “ExactAudioCopy v0.99pb4”
PERFORMER “Weezer”
TITLE “Weezer (Blue Album Deluxe Edition) (Disc 2)”
FILE “01 – Mykel and Carli (B-Side).wav” WAVE
TRACK 01 AUDIO
TITLE “Mykel and Carli (B-Side)”
PERFORMER “Weezer”
INDEX 01 00:00:00
FILE “02 – Susanne (B-Side).wav” WAVE
TRACK 02 AUDIO
TITLE “Susanne (B-Side)”
PERFORMER “Weezer”
INDEX 01 00:00:00
FILE “03 – My Evaline (B-Side).wav” WAVE
TRACK 03 AUDIO
TITLE “My Evaline (B-Side)”
PERFORMER “Weezer”
INDEX 01 00:00:00
FILE “04 – Jamie (Originally Appeared On DGC Rarities).wav” WAVE
TRACK 04 AUDIO
TITLE “Jamie (Originally Appeared On DGC Rarities)”
PERFORMER “Weezer”
INDEX 01 00:00:00
FILE “05 – My Name Is Jonas (Live B-Side).wav” WAVE
TRACK 05 AUDIO
TITLE “My Name Is Jonas (Live B-Side)”
PERFORMER “Weezer”
INDEX 01 00:00:00
FILE “06 – Surf Wax America (Live B-Side).wav” WAVE
TRACK 06 AUDIO
TITLE “Surf Wax America (Live B-Side)”
PERFORMER “Weezer”
INDEX 01 00:00:00
FILE “07 – Jamie (Live Acoustic B-Side).wav” WAVE
TRACK 07 AUDIO
TITLE “Jamie (Live Acoustic B-Side)”
PERFORMER “Weezer”
INDEX 01 00:00:00
FILE “08 – No One Else (Live Acoustic B-Side).wav” WAVE
TRACK 08 AUDIO
TITLE “No One Else (Live Acoustic B-Side)”
PERFORMER “Weezer”
INDEX 01 00:00:00
FILE “09 – Undone – The Sweater Song (Previously Unreleased Kitchen Tapes).wav” WAVE
TRACK 09 AUDIO
TITLE “Undone – The Sweater Song (Previously Unreleased Kitchen Tapes)”
PERFORMER “Weezer”
INDEX 01 00:00:00
FILE “10 – Paperface (Previously Unreleased Kitchen Tapes).wav” WAVE
TRACK 10 AUDIO
TITLE “Paperface (Previously Unreleased Kitchen Tapes)”
PERFORMER “Weezer”
INDEX 01 00:00:00
FILE “11 – Only In Dreams (Previously Unreleased Kitchen Tapes).wav” WAVE
TRACK 11 AUDIO
TITLE “Only In Dreams (Previously Unreleased Kitchen Tapes)”
PERFORMER “Weezer”
INDEX 01 00:00:00
FILE “12 – Lullaby For Wayne (Previously Unreleased Pre-Production Recording).wav” WAVE
TRACK 12 AUDIO
TITLE “Lullaby For Wayne (Previously Unreleased Pre-Production Recording)”
PERFORMER “Weezer”
INDEX 01 00:00:00
FILE “13 – I Swear It’s True (Previously Unreleased Pre-Production Recording).wav” WAVE
TRACK 13 AUDIO
TITLE “I Swear It’s True (Previously Unreleased Pre-Production Recording)”
PERFORMER “Weezer”
INDEX 01 00:00:00
FILE “14 – Say It Ain’t So (Original Album Mix).wav” WAVE
TRACK 14 AUDIO
TITLE “Say It Ain’t So (Original Album Mix)”
PERFORMER “Weezer”
INDEX 01 00:00:00


Leave a Reply

Your email address will not be published. Required fields are marked *

Enter the text from the image below
 

This site uses Akismet to reduce spam. Learn how your comment data is processed.