Volbeat – Seal The Deal & Let’s Boogie (Limited Deluxe Edition)




No Cover available


Artist: Volbeat
Year: 2016
Genre: Metal
Notes: Discogs
Add. Notes: Limited Deluxe Edition
Watch Songs on: YouTube
Cover incl.: Yes
Encoder: FLAC
Bitrate: ~1000 kBit/s (44.1 kHz/16 Bit/s)
Log & Cue incl.: Yes/Yes
Size: 546,4 MB
Password: “slam” (without ” “)


All Downloads/Hosters are compatible

Download 1
KatFile.com
Turbobit.net
Rapidgator.net
FileFactory.com
Download 2
KatFile.com
Turbobit.net
Rapidgator.net
FileFactory.com

Tracklist:

1-1 The Devil's Bleeding Crown 3:59
1-2 Marie Laveau 3:14
1-3 For Evigt 4:43
1-4 The Gates Of Babylon 4:34
1-5 Let It Burn 3:39
1-6 Black Rose 3:55
1-7 Rebound 2:30
1-8 Mary Jane Kelly 5:40
1-9 Goodbye Forever 4:31
1-10 Seal The Deal 4:09
1-11 Battleship Chains 3:22
1-12 You Will Know 4:32
1-13 The Loa's Crossroad 4:22

Bonus CD
2-1 Slaytan 0:59
2-2 The Bliss 4:44
2-3 Black Rose 3:58
2-4 The Devil's Bleeding Crown (Live) 4:09

EAC-Log, CUE-Sheed & NFO:

Click to open spoiler
Exact Audio Copy V1.1 from 23. June 2015

EAC extraction logfile from 3. June 2016, 16:24

Volbeat / Seal The Deal & Let’s Boogie CD 1

Used drive : HP DVD Writer 1170d Adapter: 1 ID: 1

Read mode : Secure
Utilize accurate stream : Yes
Defeat audio cache : Yes
Make use of C2 pointers : No

Read offset correction : 6
Overread into Lead-In and Lead-Out : No
Fill up missing offset samples with silence : Yes
Delete leading and trailing silent blocks : No
Null samples used in CRC calculations : Yes
Used interface : Native Win32 interface for Win NT & 2000

Used output format : User Defined Encoder
Selected bitrate : 1024 kBit/s
Quality : Low
Add ID3 tag : No
Command line compressor : C:\Program Files (x86)\Exact Audio Copy\FLAC\FLAC.EXE
Additional command line options : -V -8 -T “Date=%year%” -T “Genre=%genre%” -T”COMMENT=Ripped by Ungern666″ -8 -V %source%

TOC of the extracted CD

Track | Start | Length | Start sector | End sector
———————————————————
1 | 0:00.00 | 3:59.00 | 0 | 17924
2 | 3:59.00 | 3:13.51 | 17925 | 32450
3 | 7:12.51 | 4:43.27 | 32451 | 53702
4 | 11:56.03 | 4:34.22 | 53703 | 74274
5 | 16:30.25 | 3:39.32 | 74275 | 90731
6 | 20:09.57 | 3:55.22 | 90732 | 108378
7 | 24:05.04 | 2:29.35 | 108379 | 119588
8 | 26:34.39 | 5:39.42 | 119589 | 145055
9 | 32:14.06 | 4:30.56 | 145056 | 165361
10 | 36:44.62 | 4:09.22 | 165362 | 184058
11 | 40:54.09 | 3:21.67 | 184059 | 199200
12 | 44:16.01 | 4:31.39 | 199201 | 219564
13 | 48:47.40 | 4:21.68 | 219565 | 239207

Range status and errors

Selected range

Filename C:\EAC\Ungern666\Volbeat – Seal The Deal & Let’s Boogie CD 1.wav

Peak level 99.9 %
Extraction speed 7.1 X
Range quality 100.0 %
Test CRC 0B0FE47E
Copy CRC 0B0FE47E
Copy OK

No errors occurred

AccurateRip summary

Track 1 not present in database
Track 2 not present in database
Track 3 not present in database
Track 4 not present in database
Track 5 not present in database
Track 6 not present in database
Track 7 not present in database
Track 8 not present in database
Track 9 not present in database
Track 10 not present in database
Track 11 not present in database
Track 12 not present in database
Track 13 not present in database

None of the tracks are present in the AccurateRip database

End of status report

—- CUETools DB Plugin V2.1.6

[CTDB TOCID: TDV2m3ZjKBiEMLGOCcFyOw3ZrgA-] found
Submit result: TDV2m3ZjKBiEMLGOCcFyOw3ZrgA- has been confirmed
Track | CTDB Status
1 | (16/16) Accurately ripped
2 | (16/16) Accurately ripped
3 | (15/16) Accurately ripped
4 | (16/16) Accurately ripped
5 | (16/16) Accurately ripped
6 | (16/16) Accurately ripped
7 | (16/16) Accurately ripped
8 | (16/16) Accurately ripped
9 | (16/16) Accurately ripped
10 | (16/16) Accurately ripped
11 | (16/16) Accurately ripped
12 | (16/16) Accurately ripped
13 | (16/16) Accurately ripped

==== Log checksum 9E7C10E9BE84B34E60195ACEE7999E6177456C8C2922A97F5B43CFDB4E365CE0 ====

EM DATE 2016
REM DISCID BB0C750D
REM COMMENT “ExactAudioCopy v1.1”
PERFORMER “Volbeat”
TITLE “Seal The Deal & Let’s Boogie CD 1”
FILE “Volbeat – Seal The Deal & Let’s Boogie CD 1.flac” WAVE
TRACK 01 AUDIO
TITLE “The Devil’s Bleeding Crown”
PERFORMER “Volbeat”
INDEX 01 00:00:00
TRACK 02 AUDIO
TITLE “Marie Laveau”
PERFORMER “Volbeat”
INDEX 01 03:59:00
TRACK 03 AUDIO
TITLE “For Evigt (Feat. Johan Olsen)”
PERFORMER “Volbeat”
INDEX 01 07:12:51
TRACK 04 AUDIO
TITLE “The Gates Of Babylon”
PERFORMER “Volbeat”
INDEX 01 11:56:03
TRACK 05 AUDIO
TITLE “Let It Burn”
PERFORMER “Volbeat”
INDEX 01 16:30:25
TRACK 06 AUDIO
TITLE “Black Rose (Feat. Danko Jones)”
PERFORMER “Volbeat”
INDEX 01 20:09:57
TRACK 07 AUDIO
TITLE “Rebound”
PERFORMER “Volbeat”
INDEX 01 24:05:04
TRACK 08 AUDIO
TITLE “Mary Jane Kelly”
PERFORMER “Volbeat”
INDEX 01 26:34:39
TRACK 09 AUDIO
TITLE “Goodbye Forever”
PERFORMER “Volbeat”
INDEX 01 32:14:06
TRACK 10 AUDIO
TITLE “Seal The Deal”
PERFORMER “Volbeat”
INDEX 01 36:44:62
TRACK 11 AUDIO
TITLE “Battleship Chains”
PERFORMER “Volbeat”
INDEX 01 40:54:09
TRACK 12 AUDIO
TITLE “You Will Know”
PERFORMER “Volbeat”
INDEX 01 44:16:01
TRACK 13 AUDIO
TITLE “The Loa’s Crossroad”
PERFORMER “Volbeat”
INDEX 01 48:47:40

Exact Audio Copy V1.1 from 23. June 2015

EAC extraction logfile from 3. June 2016, 16:33

Volbeat / Seal The Deal & Let’s Boogie CD 2

Used drive : HP DVD Writer 1170d Adapter: 1 ID: 1

Read mode : Secure
Utilize accurate stream : Yes
Defeat audio cache : Yes
Make use of C2 pointers : No

Read offset correction : 6
Overread into Lead-In and Lead-Out : No
Fill up missing offset samples with silence : Yes
Delete leading and trailing silent blocks : No
Null samples used in CRC calculations : Yes
Used interface : Native Win32 interface for Win NT & 2000

Used output format : User Defined Encoder
Selected bitrate : 1024 kBit/s
Quality : Low
Add ID3 tag : No
Command line compressor : C:\Program Files (x86)\Exact Audio Copy\FLAC\FLAC.EXE
Additional command line options : -V -8 -T “Date=%year%” -T “Genre=%genre%” -T”COMMENT=Ripped by Ungern666″ -8 -V %source%

TOC of the extracted CD

Track | Start | Length | Start sector | End sector
———————————————————
1 | 0:00.00 | 0:59.02 | 0 | 4426
2 | 0:59.02 | 4:43.29 | 4427 | 25680
3 | 5:42.31 | 3:55.65 | 25681 | 43370
4 | 9:38.21 | 4:05.17 | 43371 | 61762

Range status and errors

Selected range

Filename C:\EAC\Ungern666\Volbeat – Seal The Deal & Let’s Boogie CD 2.wav

Peak level 98.6 %
Extraction speed 4.3 X
Range quality 100.0 %
Test CRC A2505E12
Copy CRC A2505E12
Copy OK

No errors occurred

AccurateRip summary

Track 1 not present in database
Track 2 not present in database
Track 3 not present in database
Track 4 not present in database

None of the tracks are present in the AccurateRip database

End of status report

—- CUETools DB Plugin V2.1.6

[CTDB TOCID: B2Y0pCyrDCO8pJTvyoNVsgblzpQ-] found
Submit result: B2Y0pCyrDCO8pJTvyoNVsgblzpQ- has been confirmed
Track | CTDB Status
1 | (7/7) Accurately ripped
2 | (7/7) Accurately ripped
3 | (7/7) Accurately ripped
4 | (7/7) Accurately ripped

==== Log checksum 3C940195D51C851DE0969F5267A3903ACCCFF793F0F6C91B63560B842147AB8B ====

REM DATE 2016
REM DISCID 21033704
REM COMMENT “ExactAudioCopy v1.1”
PERFORMER “Volbeat”
TITLE “Seal The Deal & Let’s Boogie CD 2”
FILE “Volbeat – Seal The Deal & Let’s Boogie CD 2.flac” WAVE
TRACK 01 AUDIO
TITLE “Slaytan”
PERFORMER “Volbeat”
INDEX 01 00:00:00
TRACK 02 AUDIO
TITLE “The Bliss”
PERFORMER “Volbeat”
INDEX 01 00:59:02
TRACK 03 AUDIO
TITLE “Black Rose”
PERFORMER “Volbeat”
INDEX 01 05:42:31
TRACK 04 AUDIO
TITLE “The Devil’s Bleeding Crown (Live)”
PERFORMER “Volbeat”
INDEX 01 09:38:21


0

Publication author

offline 7 days

Chaos

3
Comments: 4Publics: 3565Registration: 02-02-2019
Spread the Download

Leave a Reply

Your email address will not be published. Required fields are marked *

Enter the text from the image below
 

This site uses Akismet to reduce spam. Learn how your comment data is processed.