Volbeat – Outlaw Gentlemen & Shady Ladies (Limited Edition)




No Cover available

Artist: Volbeat
Year: 2013
Genre: Metal
Notes: Discogs
Add. Notes: Limited Edition
Watch Songs on: YouTube
Cover incl.: Yes
Encoder: FLAC
Bitrate: ~1000 kBit/s (44.1 kHz/16 Bit/s)
Log & Cue incl.: Yes/Yes
Size: 817,3 MB
Password: “slam” (without ” “)


All Downloads/Hosters are compatible

Download 1
KatFile.com
Turbobit.net
Rapidgator.net
FileFactory.com
Download 2
KatFile.com
Turbobit.net
Rapidgator.net
FileFactory.com

Tracklist:

1-1 Let's Shake Some Dust 1:29
1-2 Pearl Hart 3:28
1-3 The Nameless One 3:53
1-4 Dead But Rising 3:36
1-5 Cape Of Our Hero 3:50
1-6 Room 24 5:07
1-7 The Hangman's Body Count 5:16
1-8 My Body 3:42
1-9 Lola Montez 4:29
1-10 Black Bart 4:49
1-11 Lonesome Rider 4:06
1-12 The Sinner Is You 4:16
1-13 Doc Holliday 5:47
1-14 Our Loved Ones 4:50

2-1 Ecotone 3:47
2-2 Lola Montez (Harp Version) 4:29
2-3 7 Shots (Live From Wacken 2012) 5:13
2-4 Evelyn (Live From Wacken 2012) 3:47
2-5 Evelyn (2010 Demo) 3:28

EAC-Log, CUE-Sheed & NFO:

Click to open spoiler
Exact Audio Copy V1.1 from 23. June 2015

EAC extraction logfile from 1. June 2016, 12:22

Volbeat / Outlaw Gentlemen & Shady Ladies (Limited Book Edition) CD 1

Used drive : HP DVD Writer 1170d Adapter: 1 ID: 1

Read mode : Secure
Utilize accurate stream : Yes
Defeat audio cache : Yes
Make use of C2 pointers : No

Read offset correction : 6
Overread into Lead-In and Lead-Out : No
Fill up missing offset samples with silence : Yes
Delete leading and trailing silent blocks : No
Null samples used in CRC calculations : Yes
Used interface : Native Win32 interface for Win NT & 2000

Used output format : User Defined Encoder
Selected bitrate : 1024 kBit/s
Quality : Low
Add ID3 tag : No
Command line compressor : C:\Program Files (x86)\Exact Audio Copy\FLAC\FLAC.EXE
Additional command line options : -V -8 -T “Date=%year%” -T “Genre=%genre%” -T”COMMENT=Ripped by Ungern666″ -8 -V %source%

TOC of the extracted CD

Track | Start | Length | Start sector | End sector
———————————————————
1 | 0:00.00 | 1:28.74 | 0 | 6673
2 | 1:28.74 | 3:28.47 | 6674 | 22320
3 | 4:57.46 | 3:53.53 | 22321 | 39848
4 | 8:51.24 | 3:36.07 | 39849 | 56055
5 | 12:27.31 | 3:50.46 | 56056 | 73351
6 | 16:18.02 | 5:06.74 | 73352 | 96375
7 | 21:25.01 | 5:16.39 | 96376 | 120114
8 | 26:41.40 | 3:42.65 | 120115 | 136829
9 | 30:24.30 | 4:29.01 | 136830 | 157005
10 | 34:53.31 | 4:49.61 | 157006 | 178741
11 | 39:43.17 | 4:06.13 | 178742 | 197204
12 | 43:49.30 | 4:16.63 | 197205 | 216467
13 | 48:06.18 | 5:47.18 | 216468 | 242510
14 | 53:53.36 | 4:50.41 | 242511 | 264301

Range status and errors

Selected range

Filename C:\EAC\Ungern666\Volbeat – Outlaw Gentlemen & Shady Ladies (Limited Book Edition) CD 1.wav

Peak level 100.0 %
Extraction speed 7.3 X
Range quality 100.0 %
Test CRC DA5FFE1B
Copy CRC DA5FFE1B
Copy OK

No errors occurred

AccurateRip summary

Track 1 accurately ripped (confidence 200) [5DF6FE87] (AR v2)
Track 2 accurately ripped (confidence 200) [0BDC0FD8] (AR v2)
Track 3 accurately ripped (confidence 200) [748641E2] (AR v2)
Track 4 accurately ripped (confidence 200) [93675251] (AR v2)
Track 5 accurately ripped (confidence 200) [1710F819] (AR v2)
Track 6 accurately ripped (confidence 200) [CF7D6105] (AR v2)
Track 7 accurately ripped (confidence 200) [29F3D0D4] (AR v2)
Track 8 accurately ripped (confidence 200) [522D6F15] (AR v2)
Track 9 accurately ripped (confidence 200) [CF16E690] (AR v2)
Track 10 accurately ripped (confidence 200) [F3911466] (AR v2)
Track 11 accurately ripped (confidence 200) [BA0FD46E] (AR v2)
Track 12 accurately ripped (confidence 200) [82C4F546] (AR v2)
Track 13 accurately ripped (confidence 200) [5729D709] (AR v2)
Track 14 accurately ripped (confidence 200) [BC058CA2] (AR v2)

All tracks accurately ripped

End of status report

—- CUETools DB Plugin V2.1.6

[CTDB TOCID: eLPFz6S6fH520RrEuBzbPSTKBPk-] found
Submit result: eLPFz6S6fH520RrEuBzbPSTKBPk- has been confirmed
Track | CTDB Status
1 | (516/517) Accurately ripped
2 | (516/517) Accurately ripped
3 | (517/517) Accurately ripped
4 | (517/517) Accurately ripped
5 | (517/517) Accurately ripped
6 | (517/517) Accurately ripped
7 | (517/517) Accurately ripped
8 | (517/517) Accurately ripped
9 | (516/517) Accurately ripped
10 | (517/517) Accurately ripped
11 | (515/517) Accurately ripped
12 | (515/517) Accurately ripped
13 | (516/517) Accurately ripped
14 | (513/517) Accurately ripped

==== Log checksum 76A673BF4FA2A520AEC044A74BA18ED67BBAE7F2F0438E841F5502E420C3C773 ====

Exact Audio Copy V1.1 from 23. June 2015

EAC extraction logfile from 1. June 2016, 14:07

Volbeat / Outlaw Gentlemen & Shady Ladies (Limited Book Edition) CD 2

Used drive : HP DVD Writer 1170d Adapter: 1 ID: 1

Read mode : Secure
Utilize accurate stream : Yes
Defeat audio cache : Yes
Make use of C2 pointers : No

Read offset correction : 6
Overread into Lead-In and Lead-Out : No
Fill up missing offset samples with silence : Yes
Delete leading and trailing silent blocks : No
Null samples used in CRC calculations : Yes
Used interface : Native Win32 interface for Win NT & 2000

Used output format : User Defined Encoder
Selected bitrate : 1024 kBit/s
Quality : Low
Add ID3 tag : No
Command line compressor : C:\Program Files (x86)\Exact Audio Copy\FLAC\FLAC.EXE
Additional command line options : -V -8 -T “Date=%year%” -T “Genre=%genre%” -T”COMMENT=Ripped by Ungern666″ -8 -V %source%

TOC of the extracted CD

Track | Start | Length | Start sector | End sector
———————————————————
1 | 0:00.00 | 3:47.32 | 0 | 17056
2 | 3:47.32 | 4:29.08 | 17057 | 37239
3 | 8:16.40 | 5:13.15 | 37240 | 60729
4 | 13:29.55 | 3:47.24 | 60730 | 77778
5 | 17:17.04 | 3:28.70 | 77779 | 93448

Range status and errors

Selected range

Filename C:\EAC\Ungern666\Volbeat – Outlaw Gentlemen & Shady Ladies (Limited Book Edition) CD 2.wav

Peak level 100.0 %
Extraction speed 5.6 X
Range quality 99.9 %
Test CRC E7DC9047
Copy CRC E7DC9047
Copy OK

No errors occurred

AccurateRip summary

Track 1 accurately ripped (confidence 84) [D9F3A502] (AR v2)
Track 2 accurately ripped (confidence 84) [9E23391B] (AR v2)
Track 3 accurately ripped (confidence 84) [89A47A70] (AR v2)
Track 4 accurately ripped (confidence 85) [A0968A5C] (AR v2)
Track 5 accurately ripped (confidence 84) [E4C25A30] (AR v2)

All tracks accurately ripped

End of status report

—- CUETools DB Plugin V2.1.6

[CTDB TOCID: jkDAQ5ShjIfjociTtUGgvxhqFFw-] found
Submit result: already submitted
Track | CTDB Status
1 | (160/161) Accurately ripped
2 | (161/161) Accurately ripped
3 | (161/161) Accurately ripped
4 | (161/161) Accurately ripped
5 | (161/161) Accurately ripped

==== Log checksum C6A677088F43C85FFC0A9173C2B3DC3133896FF491C14A8BA9AAD53F5BDC1EC9 ====

REM DATE 2013
REM DISCID D10DC40E
REM COMMENT “ExactAudioCopy v1.1”
PERFORMER “Volbeat”
TITLE “Outlaw Gentlemen & Shady Ladies (Limited Book Edition) CD 1”
FILE “Volbeat – Outlaw Gentlemen & Shady Ladies (Limited Book Edition) CD 1.flac” WAVE
TRACK 01 AUDIO
TITLE “Let’s Shake Some Dust”
PERFORMER “Volbeat”
INDEX 01 00:00:00
TRACK 02 AUDIO
TITLE “Pearl Hart”
PERFORMER “Volbeat”
INDEX 00 01:28:00
INDEX 01 01:28:74
TRACK 03 AUDIO
TITLE “The Nameless One”
PERFORMER “Volbeat”
INDEX 00 04:55:41
INDEX 01 04:57:46
TRACK 04 AUDIO
TITLE “Dead But Rising”
PERFORMER “Volbeat”
INDEX 00 08:50:09
INDEX 01 08:51:24
TRACK 05 AUDIO
TITLE “Cape Of Our Hero”
PERFORMER “Volbeat”
INDEX 00 12:25:66
INDEX 01 12:27:31
TRACK 06 AUDIO
TITLE “Room 24 Feat. King Diamond”
PERFORMER “Volbeat”
INDEX 00 16:16:38
INDEX 01 16:18:02
TRACK 07 AUDIO
TITLE “The Hangman’s Body Count”
PERFORMER “Volbeat”
INDEX 01 21:25:01
TRACK 08 AUDIO
TITLE “My Body”
PERFORMER “Volbeat”
INDEX 00 26:40:22
INDEX 01 26:41:40
TRACK 09 AUDIO
TITLE “Lola Montez”
PERFORMER “Volbeat”
INDEX 00 30:23:07
INDEX 01 30:24:30
TRACK 10 AUDIO
TITLE “Black Bart”
PERFORMER “Volbeat”
INDEX 00 34:52:06
INDEX 01 34:53:31
TRACK 11 AUDIO
TITLE “Lonesome Rider Feat. Sarah Blackwood”
PERFORMER “Volbeat”
INDEX 00 39:41:47
INDEX 01 39:43:17
TRACK 12 AUDIO
TITLE “The Sinner Is You”
PERFORMER “Volbeat”
INDEX 00 43:47:59
INDEX 01 43:49:30
TRACK 13 AUDIO
TITLE “Doc Holliday”
PERFORMER “Volbeat”
INDEX 00 48:04:62
INDEX 01 48:06:18
TRACK 14 AUDIO
TITLE “Our Loved Ones”
PERFORMER “Volbeat”
INDEX 00 53:52:06
INDEX 01 53:53:36

REM DATE 2013
REM DISCID 3B04DD05
REM COMMENT “ExactAudioCopy v1.1”
PERFORMER “Volbeat”
TITLE “Outlaw Gentlemen & Shady Ladies (Limited Book Edition) CD 2”
FILE “Volbeat – Outlaw Gentlemen & Shady Ladies (Limited Book Edition) CD 2.flac” WAVE
TRACK 01 AUDIO
TITLE “Ecotone”
PERFORMER “Volbeat”
INDEX 01 00:00:00
TRACK 02 AUDIO
TITLE “Lola Montez (Harp Version)”
PERFORMER “Volbeat”
INDEX 00 03:46:44
INDEX 01 03:47:32
TRACK 03 AUDIO
TITLE “7 Shots – Live From Wacken 2012”
PERFORMER “Volbeat”
INDEX 00 08:14:71
INDEX 01 08:16:40
TRACK 04 AUDIO
TITLE “Evelyn – Live From Wacken 2012”
PERFORMER “Volbeat”
INDEX 00 13:28:56
INDEX 01 13:29:55
TRACK 05 AUDIO
TITLE “Evelyn – 2010 Demo”
PERFORMER “Volbeat”
INDEX 00 17:15:45
INDEX 01 17:17:04


Leave a Reply

Your email address will not be published. Required fields are marked *

Enter the text from the image below
 

This site uses Akismet to reduce spam. Learn how your comment data is processed.